<?xml version="1.0" encoding="UTF-8" standalone="no"?>
<!DOCTYPE svg PUBLIC "-//W3C//DTD SVG 1.1//EN" "http://www.w3.org/Graphics/SVG/1.1/DTD/svg11.dtd">
<svg xmlns="http://www.w3.org/2000/svg">
<metadata>Generated by IcoMoon</metadata>
<defs>
<font id="Streamline" horiz-adv-x="1024">
<font-face units-per-em="1024" ascent="960" descent="-64"/>
<missing-glyph horiz-adv-x="1024"/>
<glyph unicode=" " horiz-adv-x="512" d=""/>
<glyph unicode="" glyph-name="anchor-point" d="M1024 746.688v213.333h-213.333v-85.333h-597.333v85.333h-213.333v-213.333h85.333v-597.333h-85.333v-213.333h213.333v85.333h597.333v-85.333h213.333v213.333h-85.333v597.333h85.333zM853.333 917.355h128v-128h-128v128zM42.667 917.355h128v-128h-128v128zM170.667-21.312h-128v128h128v-128zM981.333-21.312h-128v128h128v-128zM896 149.355h-85.333v-85.333h-597.333v85.333h-85.333v597.333h85.333v85.333h597.333v-85.333h85.333v-597.333z"/>
<glyph unicode="" glyph-name="backpack" d="M853.333 277.333h-42.667v217.259c24.768 8.832 42.667 32.299 42.667 60.075v256c0 82.347-67.008 149.333-149.333 149.333h-384c-82.325 0-149.333-66.987-149.333-149.333v-256c0-27.776 17.899-51.221 42.667-60.075v-217.259h-42.667c-47.061 0-85.333-38.272-85.333-85.333v-192c0-35.285 28.715-64 64-64h725.333c35.285 0 64 28.715 64 64v192c0 47.061-38.272 85.333-85.333 85.333zM853.333 234.667c23.509 0 42.667-19.136 42.667-42.667v-42.667h-85.333v85.333h42.667zM213.333 810.667c0 58.816 47.851 106.667 106.667 106.667h384c58.816 0 106.667-47.851 106.667-106.667v-256c0-11.755-9.557-21.333-21.333-21.333h-64v106.667c0 11.776-9.536 21.333-21.333 21.333h-85.333c-11.797 0-21.333-9.557-21.333-21.333v-106.667h-170.667v106.667c0 11.776-9.536 21.333-21.333 21.333h-85.333c-11.797 0-21.333-9.557-21.333-21.333v-106.667h-64c-11.776 0-21.333 9.579-21.333 21.333v256zM640 618.667h42.667v-170.667h-42.667v170.667zM341.333 618.667h42.667v-170.667h-42.667v170.667zM170.667 234.667h42.667v-85.333h-85.333v42.667c0 23.531 19.136 42.667 42.667 42.667zM128 0v106.667h85.333v-128h-64c-11.776 0-21.333 9.579-21.333 21.333zM256 256v234.667h42.667v-64c0-11.776 9.536-21.333 21.333-21.333h85.333c11.797 0 21.333 9.557 21.333 21.333v64h170.667v-64c0-11.776 9.536-21.333 21.333-21.333h85.333c11.797 0 21.333 9.557 21.333 21.333v64h42.667v-512h-42.667v213.333c0 47.061-38.272 85.333-85.333 85.333h-256c-47.061 0-85.333-38.272-85.333-85.333v-213.333h-42.667v277.333zM682.667 149.333h-341.333v42.667c0 23.531 19.136 42.667 42.667 42.667h256c23.509 0 42.667-19.136 42.667-42.667v-42.667zM341.333-21.333v128h341.333v-128h-341.333zM874.667-21.333h-64v128h85.333v-106.667c0-11.755-9.557-21.333-21.333-21.333z"/>
<glyph unicode="" glyph-name="bin" d="M981.333 832h-277.333v106.667c0 11.776-9.557 21.333-21.333 21.333h-341.333c-11.776 0-21.333-9.557-21.333-21.333v-106.667h-277.333c-11.776 0-21.333-9.557-21.333-21.333s9.557-21.333 21.333-21.333h106.667v-832c0-11.776 9.557-21.333 21.333-21.333h682.667c11.776 0 21.333 9.557 21.333 21.333v832h106.667c11.776 0 21.333 9.557 21.333 21.333s-9.557 21.333-21.333 21.333zM362.667 917.333h298.667v-85.333h-298.667v85.333zM832-21.333h-640v810.667h640v-810.667zM341.333 661.333c-11.776 0-21.333-9.557-21.333-21.333v-490.667c0-11.776 9.557-21.333 21.333-21.333s21.333 9.557 21.333 21.333v490.667c0 11.776-9.557 21.333-21.333 21.333zM512 661.333c-11.776 0-21.333-9.557-21.333-21.333v-490.667c0-11.776 9.557-21.333 21.333-21.333s21.333 9.557 21.333 21.333v490.667c0 11.776-9.557 21.333-21.333 21.333zM661.333 640v-490.667c0-11.776 9.557-21.333 21.333-21.333s21.333 9.557 21.333 21.333v490.667c0 11.776-9.557 21.333-21.333 21.333s-21.333-9.557-21.333-21.333z"/>
<glyph unicode="" glyph-name="boil" d="M619.499 192c-7.488 0.363-14.443-3.307-18.56-9.493l-23.979-35.947-46.656 77.76c-7.701 12.864-28.885 12.864-36.587 0l-46.656-77.76-23.979 35.947c-4.117 6.187-11.371 9.877-18.56 9.493-7.424-0.299-14.165-4.416-17.792-10.88-11.157-19.861-66.731-120.853-66.731-159.787 0-47.061 38.272-85.333 85.333-85.333h213.333c47.061 0 85.333 38.272 85.333 85.333 0 38.933-55.595 139.925-66.709 159.787-3.627 6.485-10.368 10.581-17.792 10.88zM618.667-21.333h-213.333c-23.531 0-42.667 19.136-42.667 42.667 0 14.891 20.949 62.507 44.587 107.989l22.997-34.496c4.032-6.080 10.56-9.899 18.261-9.493 7.296 0.171 14.016 4.075 17.771 10.347l45.717 76.181 45.717-76.181c3.755-6.272 10.453-10.176 17.771-10.347 7.552-0.448 14.208 3.413 18.261 9.493l22.997 34.496c23.637-45.483 44.587-93.099 44.587-107.989 0-23.531-19.136-42.667-42.667-42.667zM832 746.667h-64v85.333h21.333c11.776 0 21.333 9.557 21.333 21.333s-9.557 21.333-21.333 21.333h-172.821c-9.92 48.619-52.992 85.333-104.512 85.333s-94.592-36.715-104.512-85.333h-172.821c-11.776 0-21.333-9.557-21.333-21.333s9.557-21.333 21.333-21.333h21.333v-85.333h-64c-11.776 0-21.333-9.557-21.333-21.333s9.557-21.333 21.333-21.333h64v-320c0-58.816 47.851-106.667 106.667-106.667h298.667c58.816 0 106.667 47.851 106.667 106.667v320h64c11.776 0 21.333 9.557 21.333 21.333s-9.557 21.333-21.333 21.333zM512 917.333c27.776 0 51.221-17.899 60.075-42.667h-120.128c8.832 24.768 32.277 42.667 60.053 42.667zM725.333 384c0-35.285-28.715-64-64-64h-298.667c-35.285 0-64 28.715-64 64v448h426.667v-448z"/>
<glyph unicode="" glyph-name="bomb" d="M896 810.667c-35.285 0-64-28.715-64-64s-28.715-64-64-64-64 28.715-64 64c0 70.592-57.408 128-128 128s-128-57.408-128-128v-85.333h-64c-11.797 0-21.333-9.557-21.333-21.333v-46.549c-128.213-51.925-213.333-177.067-213.333-316.117 0-188.203 153.131-341.333 341.333-341.333s341.333 153.131 341.333 341.333c0 139.051-85.12 264.192-213.333 316.117v46.549c0 11.776-9.536 21.333-21.333 21.333h-106.667v85.333c0 47.061 38.272 85.333 85.333 85.333s85.333-38.272 85.333-85.333c0-58.816 47.851-106.667 106.667-106.667s106.667 47.851 106.667 106.667c0 11.755 9.557 21.333 21.333 21.333 11.797 0 21.333 9.557 21.333 21.333s-9.536 21.333-21.333 21.333zM590.208 558.613c119.104-42.176 199.125-155.2 199.125-281.28 0-164.693-133.973-298.667-298.667-298.667s-298.667 133.973-298.667 298.667c0 126.080 80.021 239.104 199.125 281.28 8.512 3.029 14.208 11.072 14.208 20.117v39.936h170.667v-39.936c0-9.045 5.696-17.088 14.208-20.117zM344.299 487.339c-56.107-39.083-93.611-97.685-105.643-165.013-12.011-67.307 2.901-135.275 42.005-191.381 4.139-5.952 10.773-9.131 17.515-9.131 4.224 0 8.469 1.237 12.181 3.819 9.664 6.72 12.032 20.032 5.312 29.696-67.285 96.512-43.477 229.739 53.013 297.003 9.664 6.72 12.032 20.032 5.312 29.696-6.741 9.664-20.032 12.075-29.696 5.312z"/>
<glyph unicode="" glyph-name="book" d="M618.667 746.667h-256c-11.776 0-21.333-9.557-21.333-21.333v-170.667c0-11.776 9.557-21.333 21.333-21.333h256c11.776 0 21.333 9.557 21.333 21.333v170.667c0 11.776-9.557 21.333-21.333 21.333zM597.333 576h-213.333v128h213.333v-128zM917.333 832h-106.667v64c0 11.776-9.557 21.333-21.333 21.333h-640c-11.776 0-21.333-9.557-21.333-21.333v-106.667h-21.333c-11.776 0-21.333-9.557-21.333-21.333s9.557-21.333 21.333-21.333h21.333v-85.333h-21.333c-11.776 0-21.333-9.557-21.333-21.333s9.557-21.333 21.333-21.333h21.333v-85.333h-21.333c-11.776 0-21.333-9.557-21.333-21.333s9.557-21.333 21.333-21.333h21.333v-85.333h-21.333c-11.776 0-21.333-9.557-21.333-21.333s9.557-21.333 21.333-21.333h21.333v-85.333h-21.333c-11.776 0-21.333-9.557-21.333-21.333s9.557-21.333 21.333-21.333h21.333v-85.333h-21.333c-11.776 0-21.333-9.557-21.333-21.333s9.557-21.333 21.333-21.333h21.333v-106.667c0-11.776 9.557-21.333 21.333-21.333h640c11.776 0 21.333 9.557 21.333 21.333v106.667h106.667c11.776 0 21.333 9.557 21.333 21.333v682.667c0 11.776-9.557 21.333-21.333 21.333zM896 490.667h-85.333v128h85.333v-128zM810.667 448h85.333v-128h-85.333v128zM896 789.333v-128h-85.333v128h85.333zM768 21.333h-597.333v85.333h21.333c11.776 0 21.333 9.557 21.333 21.333s-9.557 21.333-21.333 21.333h-21.333v85.333h21.333c11.776 0 21.333 9.557 21.333 21.333s-9.557 21.333-21.333 21.333h-21.333v85.333h21.333c11.776 0 21.333 9.557 21.333 21.333s-9.557 21.333-21.333 21.333h-21.333v85.333h21.333c11.776 0 21.333 9.557 21.333 21.333s-9.557 21.333-21.333 21.333h-21.333v85.333h21.333c11.776 0 21.333 9.557 21.333 21.333s-9.557 21.333-21.333 21.333h-21.333v85.333h21.333c11.776 0 21.333 9.557 21.333 21.333s-9.557 21.333-21.333 21.333h-21.333v85.333h597.333v-853.333zM896 149.333h-85.333v128h85.333v-128z"/>
<glyph unicode="" glyph-name="book-2" d="M971.2 870.443c-6.293 3.904-14.123 4.224-20.715 0.939l-417.067-208.555-417.045 208.555c-6.635 3.285-14.464 2.965-20.757-0.939s-10.133-10.752-10.133-18.155v-661.333c0-8.085 4.565-15.488 11.797-19.093l426.581-213.333c0.192-0.085 0.405-0.064 0.597-0.149 2.731-1.28 5.717-2.091 8.939-2.091s6.208 0.832 8.939 2.091c0.192 0.085 0.405 0.043 0.597 0.149l426.603 213.333c7.232 3.627 11.797 11.008 11.797 19.093v661.333c0 7.403-3.84 14.272-10.133 18.155zM128.149 817.771l383.915-192v-613.632l-383.915 192v613.632zM938.667 204.139l-383.936-192v613.632l383.936 192v-613.632zM182.443 898.304l341.333-172.736c3.029-1.536 6.315-2.304 9.621-2.304s6.592 0.768 9.643 2.304l341.333 172.736c10.517 5.312 14.72 18.155 9.408 28.672-5.355 10.517-18.155 14.741-28.672 9.387l-331.712-167.851-331.712 167.851c-10.517 5.312-23.339 1.088-28.672-9.387-5.312-10.539-1.088-23.36 9.429-28.672z"/>
<glyph unicode="" glyph-name="book-download" d="M448-21.333h-256c-35.285 0-64 28.715-64 64v725.867c17.877-13.525 39.893-21.867 64-21.867h704v-170.667c0-11.776 9.557-21.333 21.333-21.333s21.333 9.557 21.333 21.333v192c0 11.776-9.557 21.333-21.333 21.333h-725.333c-35.285 0-64 28.715-64 64s28.715 64 64 64h725.333c11.776 0 21.333 9.557 21.333 21.333s-9.557 21.333-21.333 21.333h-725.333c-58.816 0-106.667-47.851-106.667-106.667 0-4.864 0.811-9.515 1.429-14.229-0.789-2.24-1.429-4.587-1.429-7.104v-789.333c0-58.816 47.851-106.667 106.667-106.667h256c11.776 0 21.333 9.557 21.333 21.333s-9.557 21.333-21.333 21.333zM746.667 490.667c-152.939 0-277.333-124.416-277.333-277.333s124.395-277.333 277.333-277.333c152.917 0 277.333 124.395 277.333 277.333s-124.416 277.333-277.333 277.333zM746.667-21.333c-129.387 0-234.667 105.28-234.667 234.667s105.28 234.667 234.667 234.667 234.667-105.28 234.667-234.667-105.28-234.667-234.667-234.667zM816.917 207.083l-48.917-48.917v161.835c0 11.776-9.557 21.333-21.333 21.333s-21.333-9.557-21.333-21.333v-161.835l-48.917 48.917c-8.341 8.341-21.824 8.341-30.165 0s-8.341-21.824 0-30.165l85.333-85.333c1.963-1.963 4.331-3.52 6.933-4.608 2.603-1.067 5.376-1.643 8.149-1.643s5.547 0.576 8.149 1.643c2.603 1.088 4.971 2.645 6.933 4.608l85.333 85.333c8.341 8.341 8.341 21.824 0 30.165s-21.824 8.341-30.165 0zM192 874.667c-11.776 0-21.333-9.557-21.333-21.333s9.557-21.333 21.333-21.333h682.667c11.776 0 21.333 9.557 21.333 21.333s-9.557 21.333-21.333 21.333h-682.667z"/>
<glyph unicode="" glyph-name="briefcase" d="M960 661.333h-277.333v128c0 23.531-19.136 42.667-42.667 42.667h-256c-23.531 0-42.667-19.136-42.667-42.667v-128h-277.333c-35.285 0-64-28.715-64-64v-597.333c0-35.285 28.715-64 64-64h896c35.285 0 64 28.715 64 64v597.333c0 35.285-28.715 64-64 64zM640 789.333v-42.667h-256v42.667h256zM384 704h256v-42.667h-256v42.667zM981.333 0c0-11.755-9.579-21.333-21.333-21.333h-896c-11.755 0-21.333 9.579-21.333 21.333v597.333c0 11.755 9.579 21.333 21.333 21.333h896c11.755 0 21.333-9.579 21.333-21.333v-597.333zM128 490.667h768v-42.667h-768v42.667zM128 320h768v-42.667h-768v42.667zM128 149.333h768v-42.667h-768v42.667z"/>
<glyph unicode="" glyph-name="brush" d="M938.667 448c0 47.061-38.272 85.333-85.333 85.333h-214.315c-7.083 0-13.696 3.499-17.664 9.387-3.968 5.867-4.779 13.312-2.155 19.883 13.803 34.453 20.8 70.763 20.8 107.925v161.472c0 70.592-57.408 128-128 128s-128-57.408-128-128v-161.472c0-37.12 6.997-73.429 20.8-107.947 2.624-6.571 1.835-13.995-2.133-19.861-3.989-5.867-10.581-9.387-17.685-9.387h-214.315c-47.061 0-85.333-38.272-85.333-85.333v-170.667h42.667v-320c0-11.776 9.557-21.333 21.333-21.333h106.667c8.085 0 15.467 4.565 19.072 11.797l44.928 89.835v-80.299c0-11.776 9.557-21.333 21.333-21.333h533.333c11.776 0 21.333 9.557 21.333 21.333v320h42.667v170.667zM853.333-21.333h-42.667v192c0 11.776-9.557 21.333-21.333 21.333s-21.333-9.557-21.333-21.333v-192h-42.667v149.333c0 11.776-9.557 21.333-21.333 21.333s-21.333-9.557-21.333-21.333v-149.333h-42.667v85.333c0 11.776-9.557 21.333-21.333 21.333s-21.333-9.557-21.333-21.333v-85.333h-234.667v149.333c0 9.899-6.805 18.496-16.405 20.757-9.707 2.24-19.563-2.368-24-11.221l-79.445-158.869h-72.149v298.667h682.667v-298.667zM896 320h-768v128c0 23.531 19.136 42.667 42.667 42.667h214.315c21.248 0 41.067 10.517 52.992 28.139s14.336 39.936 6.421 59.648c-11.755 29.419-17.728 60.416-17.728 92.075v161.472c0 47.061 38.272 85.333 85.333 85.333s85.333-38.272 85.333-85.333v-161.472c0-31.723-5.973-62.699-17.728-92.096-7.915-19.733-5.504-42.048 6.421-59.648s31.723-28.117 52.992-28.117h214.315c23.531 0 42.667-19.136 42.667-42.667v-128zM554.667 832c0-23.564-19.103-42.667-42.667-42.667s-42.667 19.103-42.667 42.667c0 23.564 19.103 42.667 42.667 42.667s42.667-19.103 42.667-42.667z"/>
<glyph unicode="" glyph-name="bubble-chat" d="M960 789.333h-896c-35.285 0-64-28.715-64-64v-554.667c0-35.285 28.715-64 64-64h64v-149.333c0-8.619 5.184-16.405 13.163-19.712 2.645-1.088 5.419-1.621 8.171-1.621 5.547 0 11.008 2.176 15.083 6.251l164.416 164.416h631.168c35.285 0 64 28.715 64 64v554.667c0 35.285-28.715 64-64 64zM981.333 170.667c0-11.755-9.557-21.333-21.333-21.333h-640c-5.675 0-11.093-2.261-15.083-6.251l-134.251-134.251v119.168c0 11.776-9.536 21.333-21.333 21.333h-85.333c-11.776 0-21.333 9.579-21.333 21.333v554.667c0 11.755 9.557 21.333 21.333 21.333h896c11.776 0 21.333-9.579 21.333-21.333v-554.667zM405.333 448c0-23.564-19.103-42.667-42.667-42.667s-42.667 19.103-42.667 42.667c0 23.564 19.103 42.667 42.667 42.667s42.667-19.103 42.667-42.667zM746.667 448c0-23.564-19.103-42.667-42.667-42.667s-42.667 19.103-42.667 42.667c0 23.564 19.103 42.667 42.667 42.667s42.667-19.103 42.667-42.667zM576 448c0-23.564-19.103-42.667-42.667-42.667s-42.667 19.103-42.667 42.667c0 23.564 19.103 42.667 42.667 42.667s42.667-19.103 42.667-42.667z"/>
<glyph unicode="" glyph-name="bubble-heart" d="M512 885.291c-282.304 0-512-189.163-512-421.675 0-109.803 50.24-212.693 141.867-291.477l-102.827-205.248c-4.053-8.128-2.539-17.92 3.776-24.427 4.117-4.224 9.664-6.464 15.317-6.464 3.051 0 6.101 0.64 8.981 1.984l274.645 127.808c54.549-15.829 111.765-23.829 170.24-23.829 282.304 0 512 189.163 512 421.653 0 232.512-229.696 421.675-512 421.675zM512 84.629c-57.088 0-112.811 8.192-165.675 24.32-5.013 1.515-10.453 1.152-15.232-1.067l-226.496-105.408 83.008 165.696c4.523 9.003 2.133 19.947-5.739 26.219-89.771 71.808-139.2 167.424-139.2 269.227 0 208.981 210.539 379.008 469.333 379.008s469.333-170.027 469.333-379.008-210.539-378.987-469.333-378.987zM651.797 671.957c-40.555 0-88.341-20.971-118.464-76.117-30.123 55.147-77.909 76.117-118.464 76.117-67.605 0-137.536-56.448-137.536-150.912 0-135.723 233.515-307.115 243.456-314.347 3.733-2.709 8.128-4.075 12.544-4.075 4.395 0 8.811 1.365 12.544 4.096 9.941 7.232 243.456 178.603 243.456 314.325 0 94.464-69.931 150.912-137.536 150.912zM533.333 250.581c-69.547 53.205-213.333 181.547-213.333 270.464 0 67.755 48.235 108.245 94.869 108.245 46.336 0 82.859-36.885 97.728-98.667 2.304-9.579 10.88-16.341 20.736-16.341s18.432 6.763 20.736 16.341c14.848 61.781 51.392 98.667 97.728 98.667 46.635 0 94.869-40.491 94.869-108.245 0-88.917-143.787-217.28-213.333-270.464z"/>
<glyph unicode="" glyph-name="bucket" d="M834.048 418.496c3.307 7.979 1.472 17.152-4.629 23.253l-384 384c-4.16 4.181-9.621 6.251-15.083 6.251v21.333c0 58.816-47.851 106.667-106.667 106.667s-106.667-47.851-106.667-106.667v-213.333c0-3.605 1.109-6.827 2.688-9.813l-167.104-167.104c-20.16-20.16-31.253-46.933-31.253-75.435 0-28.48 11.093-55.253 31.253-75.413l199.317-199.317c20.139-20.139 46.933-31.232 75.435-31.232 28.48 0 55.275 11.093 75.413 31.232l292.416 292.416h119.168c8.619 0 16.405 5.205 19.712 13.163zM259.669 853.333c0 35.285 28.715 64 64 64s64-28.715 64-64v-55.168l-128-128v183.168zM686.336 448c-5.675 0-11.093-2.261-15.083-6.251l-298.667-298.667c-24.171-24.192-66.368-24.149-90.517 0l-199.317 199.317c-12.096 12.096-18.752 28.16-18.752 45.248 0 17.109 6.656 33.173 18.752 45.269l304.917 304.917v-225.835c0-11.776 9.536-21.333 21.333-21.333s21.333 9.557 21.333 21.333v268.501l332.501-332.501h-76.501zM875.243 309.739c-7.701 12.736-28.757 12.736-36.459 0-11.264-18.517-109.781-182.677-109.781-245.739 0-70.592 57.408-128 128-128 70.571 0 128 57.408 128.021 128 0 63.061-98.539 227.221-109.781 245.739zM857.003-21.333c-47.061 0-85.333 38.272-85.333 85.333 0 33.067 46.763 125.397 85.333 192.64 38.549-67.243 85.333-159.573 85.333-192.64 0-47.061-38.272-85.333-85.333-85.333z"/>
<glyph unicode="" glyph-name="camera" d="M192 320c-58.816 0-106.667-47.851-106.667-106.667s47.851-106.667 106.667-106.667 106.667 47.851 106.667 106.667-47.851 106.667-106.667 106.667zM192 149.333c-35.285 0-64 28.715-64 64s28.715 64 64 64 64-28.715 64-64-28.715-64-64-64zM441.237 129.109c11.264-3.776 23.275 2.304 26.987 13.483l37.803 113.408h54.592l37.824-113.429c2.965-8.939 11.285-14.592 20.224-14.592 2.219 0 4.501 0.363 6.741 1.109 11.179 3.733 17.216 15.808 13.483 26.987l-42.667 128c-2.901 8.725-11.029 14.592-20.224 14.592h-85.333c-9.195 0-17.344-5.867-20.245-14.571l-42.667-128c-3.733-11.179 2.325-23.253 13.483-26.987zM341.333 789.333h42.667v-170.667h-42.667v170.667zM426.667 789.333h42.667v-170.667h-42.667v170.667zM512 789.333h42.667v-170.667h-42.667v170.667zM597.333 789.333h42.667v-170.667h-42.667v170.667zM682.667 789.333h42.667v-170.667h-42.667v170.667zM768 149.333h170.667v128h-170.667v-128zM810.667 234.667h85.333v-42.667h-85.333v42.667zM874.667 405.333h-149.333v42.667h-42.667v85.333h21.333c58.816 0 106.667 47.851 106.667 106.667v234.667h-554.667v-234.667c0-58.816 47.851-106.667 106.667-106.667h21.333v-85.333h-42.667v-42.667h-192c-82.325 0-149.333-66.987-149.333-149.333v-85.333c0-82.347 67.008-149.333 149.333-149.333h192v-42.667h384v42.667h149.333c82.325 0 149.333 66.987 149.333 149.333v85.333c0 82.347-67.008 149.333-149.333 149.333zM298.667 640v192h469.333v-192c0-35.285-28.715-64-64-64h-341.333c-35.285 0-64 28.715-64 64zM426.667 533.333h213.333v-85.333h-213.333v85.333zM149.333 64c-58.816 0-106.667 47.851-106.667 106.667v85.333c0 58.816 47.851 106.667 106.667 106.667h192v-298.667h-192zM682.667 21.333h-298.667v384h298.667v-384zM981.333 170.667c0-58.816-47.851-106.667-106.667-106.667h-149.333v298.667h149.333c58.816 0 106.667-47.851 106.667-106.667v-85.333z"/>
<glyph unicode="" glyph-name="cart-up" d="M335.083 795.584l91.584 91.584v-247.168c0-11.776 9.557-21.333 21.333-21.333s21.333 9.557 21.333 21.333v247.168l91.584-91.584c4.16-4.16 9.621-6.251 15.083-6.251s10.923 2.091 15.083 6.251c8.341 8.341 8.341 21.824 0 30.165l-128 128c-1.963 1.963-4.331 3.52-6.933 4.608-5.227 2.176-11.093 2.176-16.32 0-2.603-1.088-4.971-2.645-6.933-4.608l-128-128c-8.341-8.341-8.341-21.824 0-30.165 8.363-8.341 21.845-8.341 30.187 0zM1002.667 832h-149.333c-9.899 0-18.496-6.805-20.779-16.448l-56.363-239.552h-754.859c-6.848 0-13.291-3.285-17.301-8.853s-5.12-12.715-2.944-19.221l128-384c2.901-8.725 11.051-14.592 20.245-14.592h526.485l-10.048-42.667h-452.437c-47.061 0-85.333-38.272-85.333-85.333s38.272-85.333 85.333-85.333 85.333 38.272 85.333 85.333c0 15.616-4.523 30.059-11.861 42.667h322.389c-7.339-12.608-11.861-27.051-11.861-42.667 0-47.061 38.272-85.333 85.333-85.333s85.333 38.272 85.333 85.333c0 37.973-25.088 69.845-59.435 80.875l161.664 687.125h132.437c11.776 0 21.333 9.557 21.333 21.333s-9.557 21.333-21.333 21.333zM164.693 192l-113.771 341.333h715.221l-80.299-341.333h-521.152zM256 21.333c0-23.531-19.136-42.667-42.667-42.667s-42.667 19.136-42.667 42.667 19.136 42.667 42.667 42.667 42.667-19.136 42.667-42.667zM725.333 21.333c0-23.531-19.136-42.667-42.667-42.667s-42.667 19.136-42.667 42.667 19.136 42.667 42.667 42.667 42.667-19.136 42.667-42.667z"/>
<glyph unicode="" glyph-name="cart-down" d="M432.917 624.917c1.963-1.963 4.331-3.52 6.933-4.608 2.603-1.067 5.376-1.643 8.149-1.643s5.547 0.576 8.149 1.643c2.603 1.088 4.971 2.645 6.933 4.608l128 128c8.341 8.341 8.341 21.824 0 30.165s-21.824 8.341-30.165 0l-91.584-91.584v247.168c0 11.776-9.557 21.333-21.333 21.333s-21.333-9.557-21.333-21.333v-247.168l-91.584 91.584c-8.341 8.341-21.824 8.341-30.165 0s-8.341-21.824 0-30.165l128-128zM1002.667 832h-149.333c-9.899 0-18.496-6.805-20.779-16.448l-56.363-239.552h-754.859c-6.848 0-13.291-3.285-17.301-8.853s-5.12-12.715-2.944-19.221l128-384c2.901-8.725 11.051-14.592 20.245-14.592h526.485l-10.048-42.667h-452.437c-47.061 0-85.333-38.272-85.333-85.333s38.272-85.333 85.333-85.333 85.333 38.272 85.333 85.333c0 15.616-4.523 30.059-11.861 42.667h322.389c-7.339-12.608-11.861-27.051-11.861-42.667 0-47.061 38.272-85.333 85.333-85.333s85.333 38.272 85.333 85.333c0 37.973-25.088 69.845-59.435 80.875l161.664 687.125h132.437c11.776 0 21.333 9.557 21.333 21.333s-9.557 21.333-21.333 21.333zM164.693 192l-113.771 341.333h715.221l-80.299-341.333h-521.152zM256 21.333c0-23.531-19.136-42.667-42.667-42.667s-42.667 19.136-42.667 42.667 19.136 42.667 42.667 42.667 42.667-19.136 42.667-42.667zM725.333 21.333c0-23.531-19.136-42.667-42.667-42.667s-42.667 19.136-42.667 42.667 19.136 42.667 42.667 42.667 42.667-19.136 42.667-42.667z"/>
<glyph unicode="" glyph-name="chaplin" d="M1002.667 512.021c-11.797 0-21.333-9.557-21.333-21.333 0-79.36-54.507-146.048-128-165.077v293.077c0 188.203-153.131 341.312-341.333 341.312s-341.333-153.109-341.333-341.312v-293.077c-73.493 19.029-128 85.717-128 165.077 0 11.776-9.536 21.333-21.333 21.333s-21.333-9.557-21.333-21.333c0-117.653 95.701-213.355 213.333-213.355h597.333c117.632 0 213.333 95.701 213.333 213.355 0 11.776-9.536 21.333-21.333 21.333zM512 917.333c164.693 0 298.667-133.973 298.667-298.645v-170.688h-597.333v170.688c0 164.672 133.973 298.645 298.667 298.645zM213.333 320v85.333h597.333v-85.333h-597.333zM448 21.333l-42.667-85.333h213.333l-42.667 85.333z"/>
<glyph unicode="" glyph-name="chat" d="M341.333 960v-192h42.667v149.333h597.333v-341.333h-136.832l-140.501-140.501v140.501h-106.667v-42.667h64v-200.832l200.832 200.832h161.835v426.667zM602.027 136.128l-154.027 55.168v73.515c47.68 40.64 78.869 106.517 78.891 180.971 0 123.2-85.141 223.424-189.76 223.424-104.64 0-189.76-100.245-189.76-223.424 0-78.763 34.88-147.989 87.296-187.797v-66.688l-154.027-55.189c-48.235-17.259-80.64-63.573-80.64-115.264v-84.843h682.667v84.843c0 51.712-32.427 98.027-80.64 115.285zM337.131 626.517c70.677 0 129.856-61.632 143.893-143.467-45.013-7.637-72.384 7.531-99.605 55.147l-19.392 33.899-18.048-34.624c-14.613-28.011-66.048-53.525-107.925-53.525-15.147 0-28.331 2.24-41.152 6.997 16.384 77.845 73.835 135.573 142.229 135.573zM190.059 445.76c0 0.704 0.085 1.387 0.085 2.091 14.485-4.245 29.504-6.571 45.909-6.571 45.44 0 95.104 20.757 125.248 49.835 27.072-35.776 58.901-52.779 98.965-52.779 7.573 0 15.552 0.811 23.744 2.005-2.368-97.173-67.243-175.381-146.88-175.381-81.088 0-147.072 81.109-147.072 180.8zM640-21.333h-597.333v42.176c0 33.728 21.035 63.915 52.352 75.115l182.315 65.301v72.597c18.816-7.381 38.891-11.541 59.797-11.541 24.064 0 46.997 5.504 68.203 15.168v-76.224l182.315-65.323c31.317-11.2 52.352-41.365 52.352-75.093v-42.176zM768 746.667h42.667v-42.667h-42.667v42.667zM661.333 746.667h42.667v-42.667h-42.667v42.667zM554.667 746.667h42.667v-42.667h-42.667v42.667z"/>
<glyph unicode="" glyph-name="chef-hat" d="M746.688 853.333c-19.861 0-39.595-3.499-58.155-10.197-29.781 69.867-99.243 116.864-176.512 116.864-77.291 0-146.752-46.997-176.576-116.864-18.56 6.699-38.272 10.197-58.091 10.197-94.144 0-170.731-76.565-170.731-170.667 0-88.469 64.021-159.211 149.291-169.408v-553.323c0-11.776 9.557-21.333 21.333-21.333h469.333c11.776 0 21.333 9.557 21.333 21.333v553.323c85.312 10.197 149.376 80.939 149.376 169.408 0 94.101-76.523 170.667-170.603 170.667zM298.581-18.731v128h426.667v-128h-426.667zM746.581 554.667c-11.776 0-21.333-9.557-21.333-21.333v-381.397h-85.333v149.333c0 11.776-9.557 21.333-21.333 21.333s-21.333-9.557-21.333-21.333v-149.333h-64v192c0 11.776-9.557 21.333-21.333 21.333s-21.333-9.557-21.333-21.333v-192h-64v149.333c0 11.776-9.557 21.333-21.333 21.333s-21.333-9.557-21.333-21.333v-149.333h-85.333v381.397c0 11.776-9.557 21.333-21.333 21.333-71.744 0-127.957 56.235-127.957 128 0 70.592 57.451 128 128.064 128 21.056 0 41.92-5.248 60.373-15.147 5.675-3.051 12.459-3.392 18.432-0.853 5.952 2.517 10.432 7.595 12.203 13.824 18.091 64.085 77.163 108.843 143.659 108.843 66.475 0 125.504-44.757 143.573-108.843 1.749-6.229 6.251-11.328 12.203-13.845 5.931-2.517 12.693-2.197 18.432 0.853 18.453 9.92 39.36 15.168 60.459 15.168 70.549 0 127.936-57.408 127.936-128 0-71.765-56.235-128-128.043-128z"/>
<glyph unicode="" glyph-name="clock" d="M896 960h-768c-70.4 0-128-57.6-128-128v-768c0-70.4 57.6-128 128-128h768c70.4 0 128 57.6 128 128v768c0 70.4-57.6 128-128 128zM981.333 64c0-47.061-38.293-85.333-85.333-85.333h-768c-47.061 0-85.333 38.272-85.333 85.333v768c0 47.061 38.272 85.333 85.333 85.333h768c47.040 0 85.333-38.272 85.333-85.333v-768zM512 832c-212.139 0-384-171.925-384-384s171.861-384 384-384c212.011 0 384 171.925 384 384s-171.989 384-384 384zM512 106.667c-188.203 0-341.333 153.131-341.333 341.333s153.131 341.333 341.333 341.333 341.333-153.131 341.333-341.333-153.131-341.333-341.333-341.333zM640 448h-128v213.333c0 11.776-9.536 21.333-21.333 21.333s-21.333-9.557-21.333-21.333v-256h170.667c11.797 0 21.333 9.557 21.333 21.333s-9.536 21.333-21.333 21.333z"/>
<glyph unicode="" glyph-name="cocktail" d="M874.667 874.667c-82.325 0-149.333-66.987-149.333-149.333 0-7.232 0.789-14.315 1.792-21.333h-397.419l-149.355 170.667h-180.352v-42.667h160.981l112-128h-80.981c-8.619 0-16.427-5.205-19.712-13.163-3.307-7.979-1.472-17.152 4.629-23.253l335.083-335.083v-353.835h-149.333c-11.797 0-21.333-9.557-21.333-21.333s9.536-21.333 21.333-21.333h341.333c11.797 0 21.333 9.557 21.333 21.333s-9.536 21.333-21.333 21.333h-149.333v353.835l257.387 257.387c19.541-9.003 40.853-13.888 62.613-13.888 82.325 0 149.333 66.987 149.333 149.333s-67.008 149.333-149.333 149.333zM823.168 661.333l-289.835-289.835-289.835 289.835h579.669zM874.667 618.667c-10.091 0-20.053 1.451-29.632 4.203l44.715 44.715c6.101 6.101 7.936 15.275 4.629 23.253-3.307 7.957-11.093 13.163-19.712 13.163h-104.32c-1.408 6.955-2.347 14.037-2.347 21.333 0 58.816 47.851 106.667 106.667 106.667s106.667-47.851 106.667-106.667-47.851-106.667-106.667-106.667z"/>
<glyph unicode="" glyph-name="computer" d="M938.667 277.333h-853.333c-47.061 0-85.333-38.272-85.333-85.333v-234.667c0-11.776 9.557-21.333 21.333-21.333h981.333c11.776 0 21.333 9.557 21.333 21.333v234.667c0 47.061-38.272 85.333-85.333 85.333zM981.333-21.333h-938.667v213.333c0 23.531 19.136 42.667 42.667 42.667h853.333c23.531 0 42.667-19.136 42.667-42.667v-213.333zM141.888 320h740.181c54.741 0 99.264 47.851 99.264 106.667v426.667c0 58.816-44.523 106.667-99.285 106.667h-740.16c-54.72 0-99.221-47.851-99.221-106.667v-426.667c0-58.816 44.501-106.667 99.221-106.667zM85.333 853.333c0 35.285 25.365 64 56.555 64h740.181c31.211 0 56.597-28.715 56.597-64v-426.667c0-35.285-25.387-64-56.619-64h-740.16c-31.189 0-56.555 28.715-56.555 64v426.667zM896 874.667h-768v-469.333h768v469.333zM853.333 448h-682.667v384h682.667v-384zM362.667 192h-256c-11.776 0-21.333-9.557-21.333-21.333s9.557-21.333 21.333-21.333h256c11.776 0 21.333 9.557 21.333 21.333s-9.557 21.333-21.333 21.333zM234.667 106.667h-128c-11.776 0-21.333-9.557-21.333-21.333s9.557-21.333 21.333-21.333h128c11.776 0 21.333 9.557 21.333 21.333s-9.557 21.333-21.333 21.333zM512 64h426.667v128h-426.667v-128zM554.667 149.333h341.333v-42.667h-341.333v42.667z"/>
<glyph unicode="" glyph-name="crop" d="M1017.749 923.605c8.341 8.341 8.341 21.824 0 30.165s-21.824 8.341-30.165 0l-292.416-292.416h-439.168v64c0 11.776-9.536 21.333-21.333 21.333h-128c-11.797 0-21.333-9.557-21.333-21.333v-64h-64c-11.797 0-21.333-9.557-21.333-21.333v-128c0-11.776 9.536-21.333 21.333-21.333h64v-448c0-11.776 9.536-21.333 21.333-21.333h448v-64c0-11.776 9.536-21.333 21.333-21.333h128c11.797 0 21.333 9.557 21.333 21.333v64h64c11.797 0 21.333 9.557 21.333 21.333v128c0 11.776-9.536 21.333-21.333 21.333h-64v439.168l292.416 292.416zM128 704.021h85.333v-42.667h-85.333v42.667zM42.667 533.355v85.333h640v-426.667h-85.333v319.979c0 2.795-0.555 5.568-1.643 8.171-2.155 5.205-6.315 9.365-11.541 11.541-2.624 1.088-5.397 1.643-8.192 1.643h-533.291zM256 490.688h268.501l-268.501-268.501v268.501zM554.667 460.523v-268.501h-268.501l268.501 268.501zM597.333-21.312v42.667h85.333v-42.667h-85.333zM768 149.355v-85.333h-640v426.667h85.333v-319.979c0-2.795 0.555-5.568 1.643-8.171 2.155-5.227 6.315-9.365 11.541-11.541 2.603-1.088 5.376-1.643 8.149-1.643h533.333z"/>
<glyph unicode="" glyph-name="crown" d="M936.427 97.152c55.275 51.989 87.573 124.288 87.573 201.515 0 152.917-124.416 277.333-277.333 277.333-40.512 0-80.725-9.387-117.248-26.453-29.589 13.909-61.952 22.763-96.085 25.365v45.675c60.437 10.197 106.667 62.763 106.667 126.080 0 70.592-57.408 128-128 128s-128-57.408-128-128c0-63.317 46.229-115.883 106.667-126.080v-45.675c-34.133-2.624-66.475-11.456-96.064-25.365-36.8 17.301-76.117 26.453-117.269 26.453-152.917 0-277.333-124.416-277.333-277.333 0-77.227 32.299-149.525 87.552-201.493-29.141-14.891-44.416-45.355-44.416-75.819 0-42.411 29.163-85.355 84.864-85.355h768c55.701 0 84.843 42.923 84.843 85.312 0 30.464-15.275 60.949-44.416 75.84zM512 832c39.659 0 72.768-27.285 82.304-64h-164.608c9.536 36.715 42.645 64 82.304 64zM429.696 725.333h164.608c-9.536-36.715-42.645-64-82.304-64s-72.768 27.285-82.304 64zM42.667 298.667c0 129.387 105.28 234.667 234.667 234.667 24.491 0 48.171-4.053 70.976-11.307-68.757-50.517-113.643-131.712-113.643-223.36 0-31.552 5.269-62.507 15.659-92.011 3.904-11.115 16.043-16.96 27.2-13.035 11.093 3.904 16.96 16.085 13.035 27.2-8.768 24.917-13.227 51.136-13.227 77.845 0 129.387 105.28 234.667 234.667 234.667s234.667-105.28 234.667-234.667c0-27.264-4.651-53.973-13.803-79.36-3.989-11.093 1.749-23.296 12.843-27.307 2.368-0.853 4.843-1.28 7.232-1.28 8.725 0 16.939 5.419 20.053 14.123 10.837 30.037 16.341 61.611 16.341 93.824 0 91.648-44.885 172.821-113.621 223.36 22.784 7.253 46.464 11.307 70.955 11.307 129.387 0 234.667-105.28 234.667-234.667 0-76.651-37.205-147.968-99.84-192h-738.965c-62.656 44.032-99.861 115.349-99.861 192zM896-21.333h-768c-31.147 0-42.197 22.997-42.197 42.688 0 19.669 11.051 42.645 42.197 42.645h768c31.147 0 42.176-22.997 42.176-42.688 0-19.669-11.029-42.645-42.176-42.645z"/>
<glyph unicode="" glyph-name="database" d="M512 917.333c-239.253 0-426.667-84.331-426.667-192v-554.667c0-107.669 187.413-192 426.667-192s426.667 84.331 426.667 192v554.667c0 107.669-187.413 192-426.667 192zM896 362.667c0-88-202.368-149.333-384-149.333s-384 61.333-384 149.333v107.435c68.395-64.085 212.693-107.435 384-107.435s315.605 43.349 384 107.435v-107.435zM896 554.667c0-88-202.368-149.333-384-149.333s-384 61.333-384 149.333v86.101c68.395-64.085 212.693-107.435 384-107.435s315.605 43.349 384 107.435v-86.101zM512 874.667c181.632 0 384-61.333 384-149.333s-202.368-149.333-384-149.333-384 61.333-384 149.333 202.389 149.333 384 149.333zM512 21.333c-181.632 0-384 61.333-384 149.333v107.435c68.395-64.085 212.693-107.435 384-107.435s315.605 43.349 384 107.435v-107.435c0-88-202.368-149.333-384-149.333z"/>
<glyph unicode="" glyph-name="dropper" d="M746.667 618.667h-64v149.333c0 105.856-76.565 192-170.667 192s-170.667-86.144-170.667-192v-149.333h-64c-11.776 0-21.333-9.557-21.333-21.333s9.557-21.333 21.333-21.333h64v-362.667c0-79.424 42.261-148.928 106.667-177.984v-78.016c0-11.776 9.557-21.333 21.333-21.333h85.333c11.776 0 21.333 9.557 21.333 21.333v78.016c64.405 29.056 106.667 98.581 106.667 177.984v362.667h64c11.776 0 21.333 9.557 21.333 21.333s-9.557 21.333-21.333 21.333zM384 768c0 82.347 57.408 149.333 128 149.333s128-66.987 128-149.333v-149.333h-256v149.333zM640 213.333c0-65.899-37.909-124.843-92.203-143.296-8.64-2.965-14.464-11.072-14.464-20.203v-71.168h-42.667v71.168c0 9.131-5.824 17.259-14.464 20.203-54.293 18.453-92.203 77.397-92.203 143.296v64h64c11.776 0 21.333 9.557 21.333 21.333s-9.557 21.333-21.333 21.333h-64v42.667h64c11.776 0 21.333 9.557 21.333 21.333s-9.557 21.333-21.333 21.333h-64v42.667h64c11.776 0 21.333 9.557 21.333 21.333s-9.557 21.333-21.333 21.333h-64v85.333h256v-362.667z"/>
<glyph unicode="" glyph-name="edit" d="M832 512c-11.797 0-21.333-9.557-21.333-21.333v-512h-768v853.333h661.333c11.797 0 21.333 9.557 21.333 21.333s-9.536 21.333-21.333 21.333h-682.667c-11.797 0-21.333-9.557-21.333-21.333v-896c0-11.776 9.536-21.333 21.333-21.333h810.667c11.797 0 21.333 9.557 21.333 21.333v533.333c0 11.776-9.536 21.333-21.333 21.333zM1019.221 918.379c-10.304 24.896-34.645 41.621-60.523 41.621-16.512 0-31.915-6.699-44.565-19.349l-407.296-407.296c-1.643-1.621-2.987-3.499-4.011-5.547l-60.331-120.683c-4.096-8.213-2.496-18.133 4.011-24.619 4.096-4.096 9.557-6.251 15.083-6.251 3.243 0 6.485 0.725 9.536 2.24l120.683 60.352c2.048 1.045 3.925 2.389 5.547 4.011l346.88 346.88c0.021 0.021 0.043 0.021 0.064 0.043s0.021 0.043 0.043 0.064l60.288 60.288c18.987 18.965 24.427 44.48 14.592 68.245zM569.621 475.477l-60.331-30.187 30.165 60.352 329.408 329.429 30.165-30.187-329.408-329.408zM974.485 880.32l-45.269-45.269-30.165 30.187 45.269 45.269c12.139 12.181 29.717 5.483 35.52-8.427 3.157-7.723 1.365-15.040-5.355-21.76z"/>
<glyph unicode="" glyph-name="envelope" d="M939.072-42.667c0 0.64-0.341 1.173-0.405 1.813v1000.853h-810.667v-1024h789.333c0.149 0 0.277 0 0.427 0h20.907v19.307c0.064 0.704 0.405 1.301 0.405 2.027zM870.613 917.333l-99.349-114.581c-9.173-11.349-23.979-13.419-49.792-13.419h-376.256c-25.835 0-40.619 2.069-50.261 13.973l-98.88 114.027h674.539zM170.667 881.515l91.584-105.6c23.659-29.248 59.349-29.248 82.965-29.248h166.784v-640h-256c-6.336 0-12.331-2.816-16.384-7.68l-68.949-82.731v865.259zM194.88-21.333l71.104 85.333h534.677l71.104-85.333h-676.885zM827.051 98.987c-4.053 4.864-10.048 7.68-16.384 7.68h-256v640h166.784c23.616 0 59.307 0 82.517 28.693l92.032 106.133v-865.237l-68.949 82.731z"/>
<glyph unicode="" glyph-name="espresso-machine" d="M938.667 960h-789.333c-11.797 0-21.333-9.536-21.333-21.333v-426.667c0-11.797 9.536-21.333 21.333-21.333h64v-106.667h-21.333c-11.797 0-21.333-9.536-21.333-21.333v-21.333h-149.333c-11.797 0-21.333-9.536-21.333-21.333s9.536-21.333 21.333-21.333h149.333v-21.333c0-11.797 9.536-21.333 21.333-21.333h64v-21.333c0-11.797 9.536-21.333 21.333-21.333s21.333 9.536 21.333 21.333v21.333h64c11.797 0 21.333 9.536 21.333 21.333v85.333c0 11.797-9.536 21.333-21.333 21.333h-21.333v106.667h85.333v-384h-405.333c-11.797 0-21.333-9.536-21.333-21.333v-128c0-11.797 9.536-21.333 21.333-21.333h981.333c11.797 0 21.333 9.536 21.333 21.333v917.333c0 47.061-38.272 85.333-85.333 85.333zM341.333 298.667h-128v42.667h128v-42.667zM298.667 384h-42.667v106.667h42.667v-106.667zM42.667 64h405.333c11.797 0 21.333 9.536 21.333 21.333v426.667c0 11.797-9.536 21.333-21.333 21.333h-277.333v384h768c23.531 0 42.667-19.157 42.667-42.667v-128h-234.667c-11.797 0-21.333-9.536-21.333-21.333s9.536-21.333 21.333-21.333h234.667v-42.667h-234.667c-11.797 0-21.333-9.536-21.333-21.333s9.536-21.333 21.333-21.333h234.667v-42.667h-234.667c-11.797 0-21.333-9.536-21.333-21.333s9.536-21.333 21.333-21.333h234.667v-85.333h-192c-11.797 0-21.333-9.536-21.333-21.333v-448h-725.333v85.333zM810.667-21.333v426.667h170.667v-426.667h-170.667zM298.667 874.667c-47.061 0-85.333-38.272-85.333-85.333s38.272-85.333 85.333-85.333 85.333 38.272 85.333 85.333-38.272 85.333-85.333 85.333zM298.667 746.667c-23.509 0-42.667 19.157-42.667 42.667s19.157 42.667 42.667 42.667 42.667-19.157 42.667-42.667-19.136-42.667-42.667-42.667z"/>
<glyph unicode="" glyph-name="fork-and-knife" d="M661.333 960c-11.776 0-21.525-9.536-21.525-21.312 0-0.341 0.171-0.619 0.192-0.96v-980.395c0-11.776 9.557-21.333 21.333-21.333s21.333 9.557 21.333 21.333v341.333h106.667c11.776 0 21.333 9.557 21.333 21.333 0 309.077-60.011 640-149.333 640zM682.667 341.333v549.227c34.603-67.541 82.965-260.117 85.248-549.227h-85.248zM490.667 960c-11.776 0-21.333-9.557-21.333-21.333v-213.333c0-51.52-36.715-94.592-85.333-104.512v317.845c0 11.776-9.557 21.333-21.333 21.333s-21.333-9.557-21.333-21.333v-317.845c-48.619 9.92-85.333 52.992-85.333 104.512v213.333c0 11.776-9.557 21.333-21.333 21.333s-21.333-9.557-21.333-21.333v-213.333c0-75.093 55.744-137.216 128-147.627v-620.373c0-11.776 9.557-21.333 21.333-21.333s21.333 9.557 21.333 21.333v620.373c72.256 10.411 128 72.555 128 147.627v213.333c0 11.776-9.557 21.333-21.333 21.333z"/>
<glyph unicode="" glyph-name="forklift" d="M234.667 746.667c-35.285 0-64-28.715-64-64v-490.667h-106.667c-11.776 0-21.333-9.557-21.333-21.333s9.557-21.333 21.333-21.333h106.667v-170.667h-149.333c-11.776 0-21.333-9.557-21.333-21.333s9.557-21.333 21.333-21.333h256c11.776 0 21.333 9.557 21.333 21.333v725.333c0 35.285-28.715 64-64 64zM213.333-21.333v704c0 11.755 9.579 21.333 21.333 21.333s21.333-9.579 21.333-21.333v-704h-42.667zM1015.467 273.067l-76.8 57.6v224c0 58.816-47.851 106.667-106.667 106.667h-85.333c-223.509 0-405.333-181.824-405.333-405.333v-63.979c0-0.021 0-0.021 0-0.043v-170.645c0-11.776 9.557-21.333 21.333-21.333h90.965c27.029-38.635 71.765-64 122.368-64s95.36 25.365 122.368 64h78.656c16.512-37.611 53.995-64 97.621-64s81.131 26.389 97.621 64h30.4c11.776 0 21.333 9.557 21.333 21.333v234.667c0 6.72-3.157 13.035-8.533 17.067zM384 42.667v140.501l170.667 170.667 6.251-6.251c4.16-4.16 9.621-6.251 15.083-6.251s10.923 2.091 15.083 6.251c8.341 8.341 8.341 21.824 0 30.165l-21.333 21.333c0 0 0 0 0 0s0 0 0 0l-21.333 21.333c-8.341 8.341-21.824 8.341-30.165 0s-8.341-21.824 0-30.165l6.251-6.251-140.501-140.501v12.501c0 199.979 162.688 362.667 362.667 362.667h85.333c35.285 0 64-28.715 64-64v-213.333h-100.672l36.053 144.171c2.837 11.435-4.096 23.019-15.531 25.877-11.413 2.816-23.019-4.096-25.877-15.531l-38.656-154.517h-68.651c-5.653 0-11.093-2.261-15.083-6.251l-100.885-100.885c-78.016-4.843-140.032-69.653-140.032-148.864 0-14.827 2.24-29.141 6.293-42.667h-48.96zM576-21.333c-35.115 0-66.069 17.28-85.504 43.541-0.32 7.317-4.373 13.419-10.24 17.024-6.784 14.016-10.923 29.525-10.923 46.101 0 58.816 47.851 106.667 106.667 106.667s106.667-47.851 106.667-106.667c0-16.576-4.139-32.085-10.901-46.101-5.867-3.605-9.941-9.707-10.24-17.024-19.456-26.261-50.411-43.541-85.525-43.541zM874.667-21.333c-35.285 0-64 28.715-64 64s28.715 64 64 64 64-28.715 64-64-28.715-64-64-64zM981.333 42.667c0 58.816-47.851 106.667-106.667 106.667s-106.667-47.851-106.667-106.667h-48.96c4.053 13.525 6.293 27.84 6.293 42.667 0 66.795-44.075 123.456-104.661 142.507l70.827 70.827h218.731l71.104-53.333v-202.667z"/>
<glyph unicode="" glyph-name="globe" d="M469.333 213.333c199.979 0 362.667 162.688 362.667 362.667s-162.688 362.667-362.667 362.667-362.667-162.688-362.667-362.667 162.688-362.667 362.667-362.667zM469.333 896c176.448 0 320-143.552 320-320s-143.552-320-320-320c-176.469 0-320 143.552-320 320s143.531 320 320 320zM816.277 229.035c186.219 186.219 190.635 485.803 14.336 678.059l15.851 15.851c8.341 8.341 8.341 21.845 0 30.165-8.341 8.341-21.824 8.341-30.165 0l-30.101-30.101c-0.021-0.021-0.064-0.043-0.085-0.064s-0.043-0.064-0.064-0.085l-30.080-30.101c-8.341-8.341-8.341-21.845 0-30.165 4.16-4.16 9.621-6.251 15.083-6.251 5.44 0 10.901 2.091 15.083 6.251l14.315 14.315c159.68-175.616 155.243-448.149-14.336-617.728-169.557-169.6-442.112-173.973-617.728-14.293l14.315 14.315c8.341 8.341 8.341 21.845 0 30.165-8.341 8.341-21.824 8.341-30.165 0l-30.144-30.144c0 0-0.021-0.021-0.021-0.021s-0.021 0-0.021 0l-30.144-30.165c-8.341-8.341-8.341-21.845 0-30.165 4.16-4.16 9.621-6.251 15.083-6.251s10.923 2.069 15.083 6.251l15.851 15.872c82.325-75.477 184.043-118.101 288.448-127.125v-25.835c-81.472-7.744-158.677-37.397-225.344-87.381-7.36-5.504-10.368-15.104-7.467-23.808 2.923-8.725 11.051-14.592 20.245-14.592h510.443c9.195 0 17.323 5.867 20.245 14.592 2.88 8.704-0.107 18.304-7.467 23.808-66.667 49.963-143.872 79.637-225.323 87.381v25.835c111.061 9.6 219.477 56.619 304.277 141.419zM288.832-21.333c55.829 28.053 117.12 42.667 180.501 42.667 63.36 0 124.672-14.613 180.48-42.667h-360.981z"/>
<glyph unicode="" glyph-name="grid" d="M981.333 448c11.776 0 21.333 9.557 21.333 21.333s-9.557 21.333-21.333 21.333h-256v170.667h256c11.776 0 21.333 9.557 21.333 21.333s-9.557 21.333-21.333 21.333h-256v234.667c0 11.776-9.557 21.333-21.333 21.333s-21.333-9.557-21.333-21.333v-234.667h-170.667v234.667c0 11.776-9.557 21.333-21.333 21.333s-21.333-9.557-21.333-21.333v-234.667h-170.667v234.667c0 11.776-9.557 21.333-21.333 21.333s-21.333-9.557-21.333-21.333v-234.667h-234.667c-11.776 0-21.333-9.557-21.333-21.333s9.557-21.333 21.333-21.333h234.667v-170.667h-234.667c-11.776 0-21.333-9.557-21.333-21.333s9.557-21.333 21.333-21.333h234.667v-170.667h-234.667c-11.776 0-21.333-9.557-21.333-21.333s9.557-21.333 21.333-21.333h234.667v-277.333c0-11.776 9.557-21.333 21.333-21.333s21.333 9.557 21.333 21.333v277.333h170.667v-277.333c0-11.776 9.557-21.333 21.333-21.333s21.333 9.557 21.333 21.333v277.333h170.667v-277.333c0-11.776 9.557-21.333 21.333-21.333s21.333 9.557 21.333 21.333v277.333h256c11.776 0 21.333 9.557 21.333 21.333s-9.557 21.333-21.333 21.333h-256v170.667h256zM682.667 661.333v-170.667h-170.667v170.667h170.667zM298.667 661.333h170.667v-170.667h-170.667v170.667zM298.667 277.333v170.667h170.667v-170.667h-170.667zM682.667 277.333h-170.667v170.667h170.667v-170.667z"/>
<glyph unicode="" glyph-name="grill" d="M469.333 384c0 11.776-9.536 21.333-21.333 21.333h-85.333c-11.797 0-21.333-9.557-21.333-21.333s9.536-21.333 21.333-21.333h85.333c11.797 0 21.333 9.557 21.333 21.333zM192 533.333h384c11.797 0 21.333 9.557 21.333 21.333s-9.536 21.333-21.333 21.333h-384c-11.797 0-21.333-9.557-21.333-21.333s9.536-21.333 21.333-21.333zM681.643 449.024c119.893 10.347 214.357 111.104 214.357 233.643 0 122.176-93.909 222.763-213.333 233.579v22.421c0 11.776-9.536 21.333-21.333 21.333s-21.333-9.557-21.333-21.333v-448h-490.667c-11.797 0-21.333-9.557-21.333-21.333 0-106.048 59.861-198.251 147.52-244.907l-40.597-263.851c-1.792-11.648 6.187-22.528 17.835-24.32 1.088-0.171 2.176-0.256 3.264-0.256 10.347 0 19.435 7.531 21.077 18.091l23.467 152.576h195.669l0.384-8.64c-28.651-13.781-48.619-42.837-48.619-76.693 0-47.061 38.272-85.333 85.333-85.333s85.333 38.272 85.333 85.333c0 45.141-35.307 81.813-79.701 84.757l-5.141 117.696c82.667 43.435 140.672 127.339 147.819 225.237zM853.333 682.667c0-98.667-74.795-180.181-170.667-190.827v381.653c95.872-10.645 170.667-92.181 170.667-190.827zM171.627 448h467.413c-10.816-119.445-111.509-213.333-233.707-213.333-122.219 0-222.891 93.888-233.707 213.333zM576 21.333c0-23.531-19.157-42.667-42.667-42.667-23.531 0-42.667 19.136-42.667 42.667s19.136 42.667 42.667 42.667c23.509 0 42.667-19.136 42.667-42.667zM494.379 149.333h-187.243l8.875 57.707c28.075-9.6 58.048-15.040 89.323-15.040 30.251 0 59.285 5.035 86.571 14.016l2.475-56.683z"/>
<glyph unicode="" glyph-name="handbag" d="M810.667 576h-64v149.333c0 129.387-105.28 234.667-234.667 234.667s-234.667-105.28-234.667-234.667v-149.333h-64c-117.632 0-213.333-95.701-213.333-213.333v-277.333c0-82.347 67.008-149.333 149.333-149.333h725.333c82.325 0 149.333 66.987 149.333 149.333v277.333c0 117.632-95.701 213.333-213.333 213.333zM320 725.333c0 105.856 86.123 192 192 192s192-86.144 192-192v-149.333h-384v149.333zM213.333 533.333h64v-64c0-11.776 9.536-21.333 21.333-21.333s21.333 9.557 21.333 21.333v64h384v-64c0-11.776 9.536-21.333 21.333-21.333s21.333 9.557 21.333 21.333v64h64c94.101 0 170.667-76.565 170.667-170.667v-171.755c-112.384-10.197-202.069-99.883-212.245-212.245h-514.176c-10.176 112.384-99.861 202.069-212.245 212.245v171.755c0 94.101 76.565 170.667 170.667 170.667zM42.667 85.333v62.741c88.853-9.877 159.531-80.576 169.408-169.408h-62.741c-58.816 0-106.667 47.851-106.667 106.667zM874.667-21.333h-62.741c9.877 88.832 80.555 159.531 169.408 169.408v-62.741c0-58.816-47.851-106.667-106.667-106.667zM106.667 320h810.667c11.797 0 21.333 9.557 21.333 21.333s-9.536 21.333-21.333 21.333h-810.667c-11.797 0-21.333-9.557-21.333-21.333s9.536-21.333 21.333-21.333zM192 298.667c-11.797 0-21.333-9.557-21.333-21.333v-42.667c0-11.776 9.536-21.333 21.333-21.333s21.333 9.557 21.333 21.333v42.667c0 11.776-9.536 21.333-21.333 21.333z"/>
<glyph unicode="" glyph-name="headphone" d="M1024 320c0 51.52-36.715 94.592-85.333 104.512v23.488c0 58.816-47.851 106.667-106.667 106.667h-1.088c-11.051 166.507-149.675 298.667-318.912 298.667-169.259 0-307.861-132.16-318.912-298.667h-1.088c-58.816 0-106.667-47.851-106.667-106.667v-23.488c-48.619-9.92-85.333-52.992-85.333-104.512s36.715-94.592 85.333-104.512v-23.488c0-58.816 47.851-106.667 106.667-106.667h85.333c11.797 0 21.333 9.557 21.333 21.333v426.667c0 11.776-9.536 21.333-21.333 21.333h-41.579c10.965 142.955 130.539 256 276.245 256 145.728 0 265.28-113.045 276.245-256h-41.579c-11.797 0-21.333-9.557-21.333-21.333v-426.667c0-11.776 9.536-21.333 21.333-21.333h85.333c58.816 0 106.667 47.851 106.667 106.667v23.488c48.619 9.92 85.333 52.992 85.333 104.512zM42.667 320c0 27.776 17.899 51.221 42.667 60.075v-120.128c-24.768 8.832-42.667 32.277-42.667 60.053zM256 128h-64c-35.285 0-64 28.715-64 64v256c0 35.285 28.715 64 64 64h64v-384zM896 192c0-35.285-28.715-64-64-64h-64v384h64c35.285 0 64-28.715 64-64v-256zM938.667 259.925v120.128c24.768-8.832 42.667-32.299 42.667-60.075s-17.899-51.2-42.667-60.053z"/>
<glyph unicode="" glyph-name="heart" d="M742.741 912.789c-88.064 0-185.024-53.717-230.741-171.584-45.013 115.989-139.541 168.853-225.301 168.853-160.213 0-244.032-152.427-244.032-302.997 0-150.080 79.488-313.323 229.845-472.085 112.384-118.656 223.061-192.363 227.712-195.435 3.584-2.368 7.68-3.541 11.776-3.541 4.608 0 9.237 1.493 13.056 4.48 18.624 14.421 456.277 357.035 456.277 691.84 0 184.128-120.043 280.469-238.592 280.469zM511.061-16.043c-72.107 51.2-425.728 317.952-425.728 623.104 0 178.859 104.384 260.331 201.365 260.331 79.083 0 180.011-55.808 204.224-213.077 1.6-10.411 10.539-18.091 21.077-18.091 10.517 0 19.477 7.68 21.077 18.091 24.512 159.296 128.277 215.808 209.664 215.808 94.357 0 195.925-74.411 195.925-237.803 0-284.139-356.757-590.379-427.605-648.363z"/>
<glyph unicode="" glyph-name="hotdog" d="M319.189 255.104c-4.032 4.011-6.229 9.365-6.229 15.040-0.021 5.696 2.197 11.051 6.272 15.104 8.277 8.32 21.845 8.299 30.144 0.021 24.171-24.256 66.411-24.213 90.496-0.043 12.096 12.075 18.773 28.139 18.773 45.248 0 17.131-6.677 33.195-18.731 45.248-8.341 8.341-8.341 21.888 0 30.229 3.989 4.011 9.344 6.229 15.040 6.229 5.717 0 11.051-2.219 15.104-6.251 24.96-24.96 65.536-24.96 90.496 0 12.096 12.096 18.773 28.181 18.752 45.291s-6.656 33.152-18.731 45.184c-8.32 8.341-8.341 21.867-0.021 30.187 8.341 8.32 21.824 8.32 30.165 0 12.075-12.096 28.16-18.752 45.291-18.752 0 0 0.021 0 0.043 0 17.109 0.021 33.152 6.677 45.205 18.752 24.896 24.896 24.917 65.493 0 90.539-8.299 8.299-8.299 21.803 0.021 30.144 8 8.043 22.059 8.021 30.144-0.021 24.96-24.96 65.536-24.96 90.496 0 12.096 12.096 18.773 28.203 18.752 45.312s-6.72 33.152-18.752 45.141c-8.341 8.384-8.363 21.931-0.064 30.229 8.341 8.32 21.888 8.32 30.229-0.021s21.824-8.341 30.165 0c8.341 8.341 8.341 21.824 0 30.165-24.917 24.939-65.536 25.003-90.539 0.043-24.896-24.896-24.917-65.493 0.043-90.581 4.032-3.989 6.229-9.323 6.251-15.019 0-5.717-2.219-11.072-6.251-15.104-8.341-8.32-21.845-8.32-30.187 0.021-24.235 24.171-66.411 24.128-90.496-0.043-24.896-24.96-24.896-65.536-0.021-90.411 8.341-8.363 8.363-21.909 0.021-30.251-3.989-4.011-9.344-6.229-15.061-6.229-5.739 0-11.093 2.219-15.125 6.251-24.96 24.96-65.536 24.96-90.496 0-24.917-24.917-24.939-65.515 0.021-90.517 4.011-4.011 6.229-9.344 6.229-15.040s-2.219-11.072-6.251-15.104c-8.085-8.064-22.080-8.064-30.165 0-12.075 12.096-28.16 18.752-45.269 18.752 0 0-0.021 0-0.043 0-17.088-0.021-33.152-6.677-45.184-18.752-24.939-24.939-24.939-65.557 0.021-90.56 4.011-4.011 6.229-9.365 6.229-15.061s-2.219-11.029-6.272-15.083c-8.043-8.064-22.037-8.107-30.165 0.043-24.96 24.917-65.579 24.896-90.453 0-12.139-12.096-18.816-28.203-18.795-45.312 0-17.109 6.677-33.195 18.731-45.184 8.32-8.363 8.32-21.931 0.064-30.229-8.384-8.299-21.931-8.32-30.187-0.043-12.053 12.117-28.117 18.816-45.227 18.816-0.021 0-0.043 0-0.043 0-17.131 0-33.216-6.677-45.248-18.752-12.117-12.075-18.773-28.139-18.773-45.248 0-17.088 6.656-33.173 18.731-45.269 4.16-4.181 9.621-6.272 15.104-6.272 5.44 0 10.88 2.069 15.061 6.229 8.363 8.32 8.363 21.824 0.043 30.165-4.053 4.032-6.272 9.408-6.272 15.125 0 5.696 2.219 11.029 6.272 15.083 4.011 4.032 9.365 6.251 15.083 6.251 5.696 0 11.029-2.219 15.083-6.293 24.917-24.853 65.515-24.896 90.56 0.064 24.811 24.939 24.811 65.536-0.085 90.539zM963.776 726.123c8.405 46.571-5.269 96.405-41.173 132.331-28.181 28.181-65.685 43.712-105.579 43.712-8.853 0-17.536-0.896-26.091-2.389-96.384 78.933-198.784 80.811-275.584 3.925l-452.587-452.565c-62.869-62.827-86.827-174.443 4.075-274.987-8.405-46.592 5.269-96.427 41.195-132.331 28.203-28.203 65.707-43.712 105.6-43.712 9.131 0 18.112 0.917 26.901 2.496 41.493-38.997 89.6-59.947 139.947-60.288 0.405 0 0.789 0 1.216 0 49.173 0 97.835 20.459 133.653 56.256l452.501 452.544c64.469 64.469 86.784 173.483-4.075 275.008zM92.928 420.949l452.629 452.608c55.125 55.147 125.845 57.835 197.547 8.981-11.435-6.528-22.144-14.507-31.701-24.085l-603.371-603.371c-9.835-9.835-17.877-20.8-24.384-32.363-55.125 74.859-37.397 151.595 9.28 198.229zM213.611 42.773c-28.501 0-55.296 11.093-75.435 31.211-41.579 41.6-41.579 109.291 0 150.912l603.392 603.371c20.139 20.139 46.933 31.232 75.456 31.232 28.501 0 55.296-11.093 75.392-31.232 41.557-41.579 41.557-109.269 0-150.869l-603.413-603.413c-20.117-20.117-46.912-31.211-75.392-31.211zM937.685 481.28l-452.501-452.523c-28.096-28.096-66.091-43.84-104.427-43.776-32.853 0.213-64.896 12.053-94.101 34.24 11.755 6.613 22.741 14.784 32.533 24.597l603.413 603.435c9.792 9.813 17.813 20.715 24.299 32.235 58.603-79.595 33.963-155.029-9.216-198.208z"/>
<glyph unicode="" glyph-name="hot-drinks-glass" d="M832 832h-27.285l-37.803 113.408c-2.923 8.725-11.051 14.592-20.245 14.592h-512c-9.195 0-17.344-5.867-20.245-14.592l-37.803-113.408h-27.285c-11.776 0-21.333-9.557-21.333-21.333v-170.667c0-11.776 9.557-21.333 21.333-21.333h22.635l41.408-662.677c0.704-11.221 10.027-19.989 21.291-19.989h512c11.264 0 20.587 8.768 21.291 20.011l41.408 662.656h22.635c11.776 0 21.333 9.557 21.333 21.333v170.667c0 11.776-9.557 21.333-21.333 21.333zM250.048 917.333h481.259l28.437-85.333h-538.155l28.459 85.333zM225.365 448h530.581l-13.333-213.333h-503.915l-13.333 213.333zM254.699-21.333l-13.333 213.333h498.581l-13.333-213.333h-471.915zM758.613 490.667h-535.915l-8 128h551.915l-8-128zM810.667 661.333h-640v128h640v-128zM597.333 362.667h-213.333c-11.776 0-21.333-9.557-21.333-21.333s9.557-21.333 21.333-21.333h213.333c11.776 0 21.333 9.557 21.333 21.333s-9.557 21.333-21.333 21.333z"/>
<glyph unicode="" glyph-name="house" d="M875.989 384c-11.797 0-21.333-9.557-21.333-21.333v-384h-213.333v298.667h-256v-298.667h-213.333v405.333c0 11.776-9.536 21.333-21.333 21.333s-21.333-9.557-21.333-21.333v-448h298.667v298.667h170.667v-298.667h298.667v426.667c0 11.776-9.536 21.333-21.333 21.333zM1019.072 420.416l-490.667 490.667c-8.341 8.341-21.824 8.341-30.165 0l-490.667-490.667c-8.341-8.341-8.341-21.824 0-30.165s21.824-8.341 30.165 0l475.584 475.584 475.584-475.584c4.16-4.16 9.621-6.251 15.083-6.251s10.923 2.091 15.083 6.251c8.341 8.341 8.341 21.824 0 30.165zM683.989 832h128v-128c0-11.776 9.536-21.333 21.333-21.333s21.333 9.557 21.333 21.333v170.667h-170.667c-11.797 0-21.333-9.557-21.333-21.333s9.536-21.333 21.333-21.333z"/>
<glyph unicode="" glyph-name="ice-cream" d="M512 960c-117.632 0-213.333-95.701-213.333-213.333v-533.333c0-11.797 9.536-21.333 21.333-21.333h170.667v-234.667c0-11.797 9.536-21.333 21.333-21.333s21.333 9.536 21.333 21.333v234.667h170.667c11.797 0 21.333 9.536 21.333 21.333v533.333c0 117.632-95.701 213.333-213.333 213.333zM682.667 234.667h-341.333v512c0 94.101 76.565 170.667 170.667 170.667s170.667-76.565 170.667-170.667v-512zM597.333 490.667v170.667c0 35.285-28.715 64-64 64s-64-28.715-64-64c0-11.776-9.557-21.333-21.333-21.333s-21.333 9.557-21.333 21.333v85.333c0 11.797-9.536 21.333-21.333 21.333s-21.333-9.536-21.333-21.333v-85.333c0-35.285 28.715-64 64-64s64 28.715 64 64c0 11.776 9.557 21.333 21.333 21.333s21.333-9.557 21.333-21.333v-170.667c0-35.285 28.715-64 64-64 11.797 0 21.333 9.536 21.333 21.333s-9.536 21.333-21.333 21.333c-11.776 0-21.333 9.557-21.333 21.333z"/>
<glyph unicode="" glyph-name="imac" d="M938.667 917.333h-853.333c-47.061 0-85.333-39.979-85.333-89.109v-632.448c0-49.152 38.272-89.109 85.333-89.109h405.333v-42.667h-277.333c-11.776 0-21.333-9.557-21.333-21.333s9.557-21.333 21.333-21.333h597.333c11.776 0 21.333 9.557 21.333 21.333s-9.557 21.333-21.333 21.333h-277.333v42.667h405.333c47.061 0 85.333 39.957 85.333 89.109v632.448c0 49.131-38.272 89.109-85.333 89.109zM85.333 874.667h853.333c23.531 0 42.667-20.843 42.667-46.443v-508.224h-938.667v508.224c0 25.6 19.136 46.443 42.667 46.443zM938.667 149.333h-853.333c-23.531 0-42.667 20.843-42.667 46.443v81.557h938.667v-81.557c0-25.6-19.136-46.443-42.667-46.443zM554.667 213.333c0-23.564-19.103-42.667-42.667-42.667s-42.667 19.103-42.667 42.667c0 23.564 19.103 42.667 42.667 42.667s42.667-19.103 42.667-42.667z"/>
<glyph unicode="" glyph-name="ink" d="M384 189.077v45.589h42.667c11.797 0 21.333 9.557 21.333 21.333v85.333c0 11.776-9.536 21.333-21.333 21.333h-234.667c-11.797 0-21.333-9.557-21.333-21.333v-85.333c0-11.776 9.536-21.333 21.333-21.333h21.333v-45.696c-131.947-23.147-201.003-98.539-210.944-230.037-0.448-5.909 1.579-11.755 5.632-16.107 4.032-4.352 9.707-6.827 15.637-6.827h557.867c5.931 0 11.605 2.475 15.637 6.848 4.053 4.352 6.080 10.176 5.632 16.107-9.963 131.648-81.6 207.083-218.795 230.123zM47.424-21.333c14.699 102.357 74.155 155.392 190.059 170.859 10.603 1.408 18.517 10.453 18.517 21.141v85.333c0 11.776-9.536 21.333-21.333 21.333h-21.333v42.667h192v-42.667h-42.667c-11.797 0-21.333-9.557-21.333-21.333v-85.333c0-10.731 7.979-19.797 18.603-21.163 120.917-15.552 182.805-68.587 197.803-170.837h-510.315zM996.416 953.749c-0.043 0.043-0.107 0.064-0.149 0.085-0.064 0.064-0.085 0.149-0.149 0.235-1.28 1.216-2.816 1.877-4.288 2.731-0.896 0.512-1.685 1.301-2.645 1.685-1.515 0.597-3.093 0.683-4.693 0.917-1.131 0.171-2.219 0.597-3.371 0.576-1.429-0.021-2.795-0.512-4.203-0.811-1.28-0.277-2.581-0.32-3.797-0.832-1.365-0.576-2.496-1.621-3.733-2.496-1.045-0.725-2.219-1.152-3.136-2.091-0.043-0.043-0.064-0.128-0.107-0.171-0.064-0.064-0.128-0.064-0.192-0.128l-112.619-117.312v102.528c0 7.467-3.904 14.379-10.304 18.261-6.336 3.861-14.315 4.117-20.928 0.64-45.013-23.573-115.968-71.595-180.096-135.723-124.864-124.864-180.416-268.907-137.28-343.957-0.021-1.429 0.384-2.795 0.64-4.224l-51.413-53.568c-8.149-8.512-7.872-22.016 0.619-30.165 4.117-3.968 9.451-5.931 14.763-5.931 5.611 0 11.2 2.197 15.403 6.571l51.435 53.568c20.117-10.965 43.904-16.704 70.443-16.704 72.235 0 162.816 39.381 242.069 111.467 6.528 5.931 8.725 15.275 5.547 23.488s-11.093 13.632-19.904 13.632h-171.563l40.981 42.688c0.107 0 0.171-0.043 0.256-0.043h194.325c11.797 0 21.333 9.557 21.333 21.333s-9.536 21.333-21.333 21.333h-153.664l41.557 43.285c1.067-0.149 2.005-0.619 3.115-0.619h171.072c7.637 0 14.699 4.096 18.496 10.709 55.915 97.536 62.955 193.6 17.515 239.040zM672.171 791.659c47.061 47.061 98.837 85.376 138.496 110.080v-110.037l-272.939-284.331c-20.629 55.232 23.467 173.312 134.443 284.288zM773.867 533.355c-80.043-56.533-159.36-73.536-206.549-56.768l54.485 56.768h152.064zM947.819 746.667h-121.237l151.040 157.333c13.141-35.819 2.347-96.768-29.803-157.333z"/>
<glyph unicode="" glyph-name="ipad" d="M789.333 960h-554.667c-58.816 0-106.667-47.851-106.667-106.667v-810.667c0-58.816 47.851-106.667 106.667-106.667h554.667c58.816 0 106.667 47.872 106.667 106.667v810.667c0 58.816-47.851 106.667-106.667 106.667zM853.333 42.667c0-35.285-28.715-64-64-64h-554.667c-35.285 0-64 28.715-64 64v810.667c0 35.307 28.715 64 64 64h554.667c35.285 0 64-28.715 64-64v-810.667zM554.667 42.667c0-23.564-19.103-42.667-42.667-42.667s-42.667 19.103-42.667 42.667c0 23.564 19.103 42.667 42.667 42.667s42.667-19.103 42.667-42.667zM789.333 832h-554.667c-11.776 0-21.333-9.557-21.333-21.333v-682.667c0-11.776 9.557-21.333 21.333-21.333h554.667c11.776 0 21.333 9.557 21.333 21.333v682.667c0 11.776-9.557 21.333-21.333 21.333zM768 149.333h-512v640h512v-640zM533.333 874.667c0-11.782-9.551-21.333-21.333-21.333s-21.333 9.551-21.333 21.333c0 11.782 9.551 21.333 21.333 21.333s21.333-9.551 21.333-21.333z"/>
<glyph unicode="" glyph-name="ipod" d="M746.667 960h-469.333c-58.816 0-106.667-47.851-106.667-106.667v-810.667c0-58.816 47.851-106.667 106.667-106.667h469.333c58.816 0 106.667 47.851 106.667 106.667v810.667c0 58.816-47.851 106.667-106.667 106.667zM810.667 42.667c0-35.285-28.715-64-64-64h-469.333c-35.285 0-64 28.715-64 64v810.667c0 35.285 28.715 64 64 64h469.333c35.285 0 64-28.715 64-64v-810.667zM256 490.667h512v384h-512v-384zM298.667 832h426.667v-298.667h-426.667v298.667zM512 448c-117.632 0-213.333-95.701-213.333-213.333s95.701-213.333 213.333-213.333 213.333 95.701 213.333 213.333-95.701 213.333-213.333 213.333zM512 64c-94.101 0-170.667 76.565-170.667 170.667s76.565 170.667 170.667 170.667 170.667-76.565 170.667-170.667-76.565-170.667-170.667-170.667zM512 362.667c-70.592 0-128-57.408-128-128s57.408-128 128-128 128 57.408 128 128-57.408 128-128 128zM512 149.333c-47.061 0-85.333 38.272-85.333 85.333s38.272 85.333 85.333 85.333 85.333-38.272 85.333-85.333-38.272-85.333-85.333-85.333z"/>
<glyph unicode="" glyph-name="laptop" d="M853.333 405.333v426.667h-682.667v-426.667h682.667zM213.333 789.333h597.333v-341.333h-597.333v341.333zM709.995 106.667l-32 128h-331.989l-32-128h395.989zM379.328 192h265.323l10.667-42.667h-286.656l10.667 42.667zM938.667 365.461v466.539c0 47.061-38.272 85.333-85.333 85.333h-682.667c-47.061 0-85.333-38.272-85.333-85.333v-487.68l-84.523-295.787-0.811-27.2c0-47.061 38.272-85.333 85.333-85.333h853.333c47.061 0 85.333 38.272 85.333 85.333v21.333l-85.333 322.795zM170.667 874.667h682.667c23.509 0 42.667-19.136 42.667-42.667v-469.333h-768.768l0.768 469.333c0 23.531 19.136 42.667 42.667 42.667zM122.773 320h784.512l67.669-256h-925.333l73.152 256zM938.667-21.333h-853.333c-23.531 0-42.667 19.136-42.667 42.667h938.667c0-23.531-19.157-42.667-42.667-42.667z"/>
<glyph unicode="" glyph-name="laptop-2" d="M896 746.667h-768v-469.333h768v469.333zM853.333 320h-682.667v384h682.667v-384zM1002.667 234.667h-21.333v512c0 47.061-38.272 85.333-85.333 85.333h-768c-47.061 0-85.333-38.272-85.333-85.333v-512h-21.333c-11.797 0-21.333-9.557-21.333-21.333v-85.333c0-35.285 28.715-64 64-64h896c35.285 0 64 28.715 64 64v85.333c0 11.776-9.536 21.333-21.333 21.333zM85.333 746.667c0 23.531 19.136 42.667 42.667 42.667h768c23.509 0 42.667-19.136 42.667-42.667v-512h-320c-11.797 0-21.333-9.557-21.333-21.333v-21.333h-170.667v21.333c0 11.776-9.536 21.333-21.333 21.333h-320v512zM981.333 128c0-11.755-9.557-21.333-21.333-21.333h-896c-11.776 0-21.333 9.579-21.333 21.333v64h341.333v-21.333c0-11.776 9.536-21.333 21.333-21.333h213.333c11.797 0 21.333 9.557 21.333 21.333v21.333h341.333v-64z"/>
<glyph unicode="" glyph-name="layers" d="M874.667 234.667c-11.776 0-21.333-9.557-21.333-21.333v-64h-682.667v426.667h21.333c11.776 0 21.333 9.557 21.333 21.333s-9.557 21.333-21.333 21.333h-42.667c-11.776 0-21.333-9.557-21.333-21.333v-469.333c0-11.776 9.557-21.333 21.333-21.333h725.333c11.776 0 21.333 9.557 21.333 21.333v85.333c0 11.776-9.557 21.333-21.333 21.333zM1002.667 789.333h-725.333c-11.776 0-21.333-9.557-21.333-21.333v-469.333c0-11.776 9.557-21.333 21.333-21.333h725.333c11.776 0 21.333 9.557 21.333 21.333v469.333c0 11.776-9.557 21.333-21.333 21.333zM981.333 320h-682.667v426.667h682.667v-426.667zM746.667 64c-11.776 0-21.333-9.557-21.333-21.333v-64h-682.667v426.667h21.333c11.776 0 21.333 9.557 21.333 21.333s-9.557 21.333-21.333 21.333h-42.667c-11.776 0-21.333-9.557-21.333-21.333v-469.333c0-11.776 9.557-21.333 21.333-21.333h725.333c11.776 0 21.333 9.557 21.333 21.333v85.333c0 11.776-9.557 21.333-21.333 21.333z"/>
<glyph unicode="" glyph-name="link" d="M504.235 230.997l-135.787-135.744c-20.139-20.16-46.933-31.253-75.413-31.253s-55.253 11.093-75.456 31.253l-30.165 30.144c-41.579 41.6-41.579 109.269 0 150.848l196.117 196.117c20.16 20.16 46.955 31.253 75.435 31.253s55.275-11.093 75.413-31.253l30.165-30.165c8.341-8.341 21.824-8.341 30.165 0 8.341 8.32 8.341 21.824 0 30.165l-30.144 30.165c-28.203 28.203-65.685 43.755-105.579 43.755-39.872 0-77.397-15.552-105.6-43.755l-196.117-196.117c-58.219-58.197-58.219-152.939 0-211.179l30.165-30.144c28.203-28.224 65.707-43.755 105.6-43.755s77.397 15.531 105.6 43.755l135.765 135.744c8.341 8.32 8.341 21.824 0 30.165-8.32 8.341-21.824 8.341-30.165 0zM851.2 728.811l-30.165 30.187c-28.203 28.203-65.707 43.733-105.6 43.733s-77.397-15.531-105.579-43.733l-135.787-135.765c-8.341-8.32-8.341-21.824 0-30.165s21.824-8.341 30.165 0l135.787 135.765c20.139 20.139 46.933 31.232 75.413 31.232 28.501 0 55.296-11.093 75.435-31.232l30.165-30.187c20.139-20.16 31.232-46.933 31.232-75.435 0-28.48-11.093-55.275-31.232-75.413l-196.117-196.096c-20.139-20.16-46.912-31.253-75.413-31.253s-55.275 11.093-75.413 31.253c-8.341 8.32-21.845 8.32-30.187 0-8.32-8.32-8.32-21.824 0-30.165 28.203-28.224 65.685-43.755 105.6-43.755 39.893 0 77.397 15.531 105.6 43.755l196.096 196.096c28.203 28.203 43.733 65.685 43.733 105.579s-15.531 77.397-43.733 105.6z"/>
<glyph unicode="" glyph-name="location" d="M512 661.333c82.347 0 149.333 66.987 149.333 149.333s-66.987 149.333-149.333 149.333-149.333-66.987-149.333-149.333 66.987-149.333 149.333-149.333zM512 917.333c58.816 0 106.667-47.851 106.667-106.667s-47.851-106.667-106.667-106.667-106.667 47.851-106.667 106.667 47.851 106.667 106.667 106.667zM426.667 339.904v-169.237c0-11.776 9.557-21.333 21.333-21.333h128c11.776 0 21.333 9.557 21.333 21.333v169.237c83.264 39.829 128 159.381 128 257.429 0 11.776-9.557 21.333-21.333 21.333h-384c-11.776 0-21.333-9.557-21.333-21.333 0-98.048 44.736-217.6 128-257.429zM681.835 576c-6.229-83.755-48.213-179.093-112.896-201.728-8.533-3.008-14.272-11.072-14.272-20.139v-162.133h-85.333v162.133c0 9.045-5.739 17.131-14.272 20.139-64.683 22.613-106.667 117.973-112.917 201.728h339.691zM512 85.333c-171.264 0-271.616 35.029-277.376 52.864 1.472 4.779 24.469 25.707 110.101 40.683 11.584 2.027 19.349 13.077 17.323 24.683-2.027 11.584-12.949 19.349-24.683 17.323-96.469-16.853-145.365-44.523-145.365-82.219 0-75.776 201.152-96 320-96s320 20.224 320 96c0 37.632-48.704 65.259-144.811 82.155-11.648 2.091-22.656-5.739-24.704-17.323-2.027-11.605 5.717-22.656 17.323-24.704 85.205-14.976 108.096-35.84 109.568-39.659-5.76-18.773-106.112-53.803-277.376-53.803zM685.525 309.227c-11.712 1.579-22.4-6.72-23.893-18.432-1.493-11.691 6.741-22.379 18.432-23.893 197.781-25.579 301.269-89.216 301.269-138.901 0-70.635-192.747-149.333-469.333-149.333s-469.333 78.699-469.333 149.333c0 49.685 103.509 113.344 301.376 138.88 11.691 1.515 19.947 12.203 18.432 23.893-1.515 11.712-12.309 20.032-23.893 18.432-163.691-21.12-338.581-79.829-338.581-181.205 0-93.077 179.456-192 512-192s512 98.923 512 192c0 101.355-174.848 160.064-338.475 181.227z"/>
<glyph unicode="" glyph-name="lock" d="M512 362.667c-23.573 0-42.667-19.093-42.667-42.667 0-15.744 8.64-29.355 21.333-36.757v-112.576c0-11.776 9.536-21.333 21.333-21.333s21.333 9.557 21.333 21.333v112.576c12.693 7.381 21.333 20.992 21.333 36.757 0 23.573-19.093 42.667-42.667 42.667zM768 576v128c0 141.163-114.837 256-256 256s-256-114.837-256-256v-128h-128v-640h768v640h-128zM298.667 704c0 117.632 95.701 213.333 213.333 213.333s213.333-95.701 213.333-213.333v-128h-426.667v128zM853.333-21.333h-682.667v554.667h682.667v-554.667z"/>
<glyph unicode="" glyph-name="lock-unlock" d="M490.667 283.243v-112.576c0-11.776 9.557-21.333 21.333-21.333s21.333 9.557 21.333 21.333v112.576c12.693 7.381 21.333 20.992 21.333 36.757 0 23.573-19.093 42.667-42.667 42.667s-42.667-19.093-42.667-42.667c0-15.744 8.64-29.355 21.333-36.757zM768 576v128c0 141.163-114.837 256-256 256s-256-114.837-256-256h42.667c0 117.632 95.701 213.333 213.333 213.333s213.333-95.701 213.333-213.333v-128h-597.333v-640h768v640h-128zM853.333-21.333h-682.667v554.667h682.667v-554.667z"/>
<glyph unicode="" glyph-name="magic-wand" d="M886.251 564.843l-80.768 80.789 64.064 121.173c7.445 14.059 4.821 31.339-6.421 42.603-6.955 6.976-16.256 10.624-25.664 10.624-5.76 0-11.563-1.365-16.917-4.203l-121.195-64.021-84.608 84.587c-6.976 6.891-16.256 10.539-25.664 10.539-6.123 0-12.331-1.557-17.941-4.757-14.208-8.085-21.227-24.683-17.173-40.512l27.264-106.496-127.915-59.712c-14.656-6.827-22.997-22.549-20.48-38.507s15.296-28.331 31.339-30.336l108.672-13.589-566.592-566.571c-8.341-8.341-8.341-21.824 0-30.165 4.16-4.16 9.621-6.251 15.083-6.251s10.923 2.091 15.083 6.251l569.557 569.536 14.421-115.435c2.005-16.043 14.379-28.821 30.336-31.317 1.899-0.299 3.797-0.448 5.675-0.448 13.909 0 26.816 8.021 32.832 20.949l59.968 128.491 103.104-24.192c2.773-0.661 5.547-0.96 8.299-0.96 12.949 0 25.195 6.955 31.68 18.645 7.872 14.165 5.419 31.829-6.037 43.285zM728.789 570.091l-72.384-155.179-20.864 166.848-166.848 20.864 155.157 72.427-34.752 135.616 103.531-103.509 144.853 76.544-76.587-144.832 99.712-99.712-131.819 30.933z"/>
<glyph unicode="" glyph-name="magnet" d="M1002.475 425.621l-120.683 120.683c-8 8-22.165 8-30.165 0l-316.779-316.8c-32.256-32.213-75.115-49.984-120.704-49.984s-88.448 17.749-120.683 49.984c-66.539 66.539-66.539 174.805 0 241.365l316.8 316.779c4.011 4.011 6.251 9.429 6.251 15.083s-2.24 11.072-6.251 15.083l-120.683 120.683c-8.341 8.341-21.824 8.341-30.165 0l-346.965-346.965c-149.717-149.717-149.717-393.344 0-543.061 72.533-72.512 168.981-112.469 271.552-112.469 102.592 0 198.997 39.957 271.509 112.469l346.965 346.987c4.011 3.989 6.251 9.429 6.251 15.083s-2.24 11.072-6.251 15.083zM474.496 893.248l90.517-90.539-60.352-60.352-90.517 90.517 60.352 60.373zM625.344 78.656c-64.469-64.469-150.165-99.989-241.344-99.989s-176.896 35.52-241.387 99.989c-133.056 133.077-133.056 349.632 0 482.731l241.344 241.323 90.539-90.517-211.2-211.179c-83.179-83.179-83.179-218.517 0-301.696 40.299-40.277 93.867-62.485 150.848-62.485s110.549 22.187 150.869 62.485l211.157 211.179 90.517-90.517-241.344-241.323zM896.853 350.144l-90.517 90.517 60.373 60.373 90.517-90.517-60.373-60.373z"/>
<glyph unicode="" glyph-name="mail" d="M938.667 746.667h-853.333c-47.061 0-85.333-38.272-85.333-85.333v-512c0-47.061 38.272-85.333 85.333-85.333h853.333c47.061 0 85.333 38.272 85.333 85.333v512c0 47.061-38.272 85.333-85.333 85.333zM981.333 149.333c0-23.531-19.136-42.667-42.667-42.667h-853.333c-23.531 0-42.667 19.136-42.667 42.667v512c0 23.531 19.136 42.667 42.667 42.667h853.333c23.531 0 42.667-19.136 42.667-42.667v-512zM892.565 566.251c-6.4 9.877-19.605 12.736-29.504 6.315l-351.061-227.157-351.083 227.179c-9.899 6.4-23.083 3.541-29.504-6.315-6.4-9.899-3.563-23.104 6.315-29.504l362.667-234.667c3.541-2.283 7.573-3.435 11.605-3.435s8.064 1.152 11.584 3.413l362.667 234.667c9.877 6.4 12.715 19.605 6.315 29.504zM288.085 338.517l-149.333-85.333c-10.219-5.845-13.781-18.88-7.936-29.099 3.925-6.891 11.136-10.752 18.539-10.752 3.584 0 7.232 0.896 10.56 2.816l149.333 85.333c10.219 5.845 13.781 18.88 7.936 29.099-5.824 10.219-18.88 13.76-29.099 7.936zM885.248 253.184l-149.333 85.333c-10.197 5.845-23.253 2.283-29.099-7.936s-2.283-23.253 7.936-29.099l149.333-85.333c3.328-1.92 6.976-2.816 10.56-2.816 7.403 0 14.613 3.861 18.539 10.752 5.845 10.219 2.283 23.253-7.936 29.099z"/>
<glyph unicode="" glyph-name="marker" d="M554.667 960c-188.203 0-341.333-153.131-341.333-341.333 0-181.099 310.315-653.077 323.541-673.088 3.947-5.995 10.624-9.579 17.792-9.579s13.845 3.584 17.792 9.579c13.227 20.011 323.541 491.989 323.541 673.088 0 188.203-153.131 341.333-341.333 341.333zM554.667-3.392c-66.837 104.427-298.667 477.184-298.667 622.059 0 164.693 133.973 298.667 298.667 298.667s298.667-133.973 298.667-298.667c0-144.832-231.829-517.632-298.667-622.059zM554.667 768c-82.325 0-149.333-66.987-149.333-149.333s67.008-149.333 149.333-149.333 149.333 66.987 149.333 149.333-67.008 149.333-149.333 149.333zM554.667 512c-58.816 0-106.667 47.851-106.667 106.667s47.851 106.667 106.667 106.667 106.667-47.851 106.667-106.667-47.851-106.667-106.667-106.667z"/>
<glyph unicode="" glyph-name="microphone" d="M853.333 533.333c-11.776 0-21.333-9.536-21.333-21.333v-64h-42.667v234.667c0 152.917-124.416 277.333-277.333 277.333-152.939 0-277.333-124.416-277.333-277.333v-234.667h-42.667v64c0 11.797-9.557 21.333-21.333 21.333s-21.333-9.536-21.333-21.333v-85.333c0-196.139 148.331-350.869 341.333-361.621v-129.045h42.667v129.045c193.003 10.752 341.333 165.483 341.333 361.621v85.333c0 11.797-9.557 21.333-21.333 21.333zM277.333 490.667h149.333c11.776 0 21.333 9.536 21.333 21.333s-9.557 21.333-21.333 21.333h-149.333v42.667h149.333c11.776 0 21.333 9.536 21.333 21.333s-9.557 21.333-21.333 21.333h-149.333v42.667h149.333c11.776 0 21.333 9.536 21.333 21.333s-9.557 21.333-21.333 21.333h-148.245c7.424 81.856 57.045 151.573 126.912 187.435v-80.768c0-11.797 9.557-21.333 21.333-21.333s21.333 9.536 21.333 21.333v97.557c13.76 3.925 27.989 6.699 42.667 8.021v-105.579c0-11.797 9.557-21.333 21.333-21.333s21.333 9.536 21.333 21.333v105.579c14.656-1.323 28.907-4.096 42.667-8.021v-97.557c0-11.797 9.557-21.333 21.333-21.333s21.333 9.536 21.333 21.333v80.768c69.867-35.84 119.488-105.557 126.912-187.435h-148.245c-11.776 0-21.333-9.536-21.333-21.333s9.557-21.333 21.333-21.333h149.333v-42.667h-149.333c-11.776 0-21.333-9.536-21.333-21.333s9.557-21.333 21.333-21.333h149.333v-42.667h-149.333c-11.776 0-21.333-9.536-21.333-21.333s9.557-21.333 21.333-21.333h149.333v-42.667h-469.333v42.667zM745.579 405.333c-10.816-119.424-111.381-213.333-233.579-213.333s-222.763 93.909-233.579 213.333h467.157zM512 106.667c-172.224 0-308.267 129.6-318.955 298.667h42.709c10.965-142.955 130.517-256 276.245-256s265.28 113.045 276.245 256h42.709c-10.688-169.067-146.731-298.667-318.955-298.667z"/>
<glyph unicode="" glyph-name="monocle" d="M704 915.605c-129.387 0-234.667-105.259-234.667-234.667 0-129.387 105.28-234.667 234.667-234.667s234.667 105.28 234.667 234.667-105.28 234.667-234.667 234.667zM704 488.939c-105.877 0-192 86.144-192 192s86.123 192 192 192 192-86.144 192-192-86.123-192-192-192zM1024 702.272c0-11.782-9.551-21.333-21.333-21.333s-21.333 9.551-21.333 21.333c0 11.782 9.551 21.333 21.333 21.333s21.333-9.551 21.333-21.333zM1002.667 662.208c-11.797 0-21.333-9.557-21.333-21.333v-682.667c0-11.776 9.536-21.333 21.333-21.333s21.333 9.557 21.333 21.333v682.667c0 11.776-9.536 21.333-21.333 21.333zM812.693 109.291c-9.685 5.355-21.803 2.496-28.011-6.635-16.427-24.107-43.584-38.485-72.619-38.485-48.427 0-87.829 39.424-87.829 87.893 0 84.928-65.387 129.365-129.941 129.365-30.656 0-59.733-9.621-82.496-26.901-22.741 17.28-51.797 26.901-82.453 26.901-64.597 0-129.941-44.437-129.941-129.365 0-48.469-39.403-87.893-87.872-87.893-29.056 0-56.171 14.4-72.555 38.485-6.208 9.131-18.389 12.011-28.011 6.635-9.664-5.376-13.611-17.216-9.109-27.307 40.043-89.899 117.931-141.461 213.653-141.461 75.925 0 149.888 33.216 196.309 86.485 46.421-53.269 120.405-86.485 196.331-86.485 95.723 0 173.611 51.563 213.632 141.461 4.501 10.069 0.555 21.931-9.088 27.307zM608.149-16.811c-71.445 0-143.168 36.459-178.453 90.731-3.947 6.037-10.667 9.685-17.877 9.685-7.232 0-13.973-3.648-17.856-9.685-35.285-54.293-106.987-90.731-178.432-90.731-44.309 0-83.968 13.632-116.011 38.891 3.989-0.363 8.021-0.555 12.053-0.555 71.979 0 130.539 58.56 130.539 130.56 0 59.883 43.84 86.699 87.275 86.699 26.368 0 50.709-9.984 66.795-27.371 4.032-4.373 9.707-6.869 15.659-6.869s11.605 2.475 15.659 6.848c16.085 17.408 40.448 27.392 66.837 27.392 43.435 0 87.275-26.816 87.275-86.699 0-71.979 58.539-130.56 130.496-130.56 4.053 0 8.085 0.171 12.096 0.555-32.064-25.259-71.723-38.891-116.053-38.891zM810.667 680.939c0-58.816-47.851-106.667-106.667-106.667-11.797 0-21.333-9.557-21.333-21.333s9.536-21.333 21.333-21.333c82.325 0 149.333 66.987 149.333 149.333 0 11.776-9.536 21.333-21.333 21.333s-21.333-9.557-21.333-21.333z"/>
<glyph unicode="" glyph-name="mp3player" d="M298.667 277.333c-70.592 0-128-57.408-128-128s57.408-128 128-128 128 57.429 128 128c0 70.592-57.408 128-128 128zM298.667 64c-47.061 0-85.333 38.272-85.333 85.333s38.272 85.333 85.333 85.333 85.333-38.272 85.333-85.333-38.272-85.333-85.333-85.333zM277.333 106.667l64 42.667-64 42.667zM960 704c-27.776 0-51.221-17.899-60.075-42.667h-3.925c-47.061 0-85.333-38.272-85.333-85.333s38.272-85.333 85.333-85.333h3.925c6.443-18.069 20.672-32.299 38.741-38.741v-302.592c0-47.061-38.272-85.333-85.333-85.333s-85.333 38.272-85.333 85.333v597.333c0 47.061-38.272 85.333-85.333 85.333h-85.333v42.667c0 47.061-38.272 85.333-85.333 85.333h-426.667c-47.061 0-85.333-38.272-85.333-85.333v-853.333c0-47.061 38.272-85.333 85.333-85.333h426.667c47.061 0 85.333 38.293 85.333 85.333v768h85.333c23.509 0 42.667-19.136 42.667-42.667v-597.333c0-70.592 57.408-128 128-128s128 57.429 128 128v302.592c24.768 8.832 42.667 32.299 42.667 60.075v128c0 35.285-28.715 64-64 64zM85.333 917.333h426.667c23.509 0 42.667-19.136 42.667-42.667v-512h-512v512c0 23.531 19.136 42.667 42.667 42.667zM512-21.333h-426.667c-23.531 0-42.667 19.136-42.667 42.667v298.667h512v-298.667c0-23.531-19.157-42.667-42.667-42.667zM853.333 576c0 23.531 19.136 42.667 42.667 42.667v-85.333c-23.531 0-42.667 19.136-42.667 42.667zM981.333 512c0-11.755-9.557-21.333-21.333-21.333s-21.333 9.579-21.333 21.333v128c0 11.755 9.557 21.333 21.333 21.333s21.333-9.557 21.333-21.333v-128zM128 746.667h85.333v-42.667h-85.333v42.667zM128 661.333h85.333v-42.667h-85.333v42.667zM128 576h85.333v-42.667h-85.333v42.667zM128 490.667h85.333v-42.667h-85.333v42.667zM384 661.333h85.333v-42.667h-85.333v42.667zM384 576h85.333v-42.667h-85.333v42.667zM384 490.667h85.333v-42.667h-85.333v42.667zM256 576h85.333v-42.667h-85.333v42.667zM256 490.667h85.333v-42.667h-85.333v42.667z"/>
<glyph unicode="" glyph-name="music-note" d="M261.909 760.981v-504.981h-106.667c-82.325 0-149.333-66.987-149.333-149.333s67.008-149.333 149.333-149.333c79.552 0 149.333 69.781 149.333 149.333v476.288l426.667 174.635v-330.923h-106.667c-82.325 0-149.333-66.987-149.333-149.333s67.008-149.333 149.333-149.333c79.552 0 149.333 69.781 149.333 149.333v693.12l-512-209.472zM261.909 106.667c0-50.347-45.632-106.667-106.667-106.667-58.816 0-106.667 47.851-106.667 106.667s47.851 106.667 106.667 106.667h106.667v-106.667zM731.243 277.333c0-50.347-45.632-106.667-106.667-106.667-58.816 0-106.667 47.851-106.667 106.667s47.851 106.667 106.667 106.667h106.667v-106.667zM304.576 629.077v103.275l426.667 174.528v-103.168l-426.667-174.635z"/>
<glyph unicode="" glyph-name="network" d="M234.667 576h-173.995c-9.92 0-18.005 9.579-18.005 21.333v21.333h490.667c11.776 0 21.333 9.557 21.333 21.333v256c0 35.285-27.243 64-60.736 64h-433.259c-33.451 0-60.672-28.715-60.672-64v-298.667c0-35.285 27.221-64 60.672-64h173.995c11.776 0 21.333 9.557 21.333 21.333s-9.557 21.333-21.333 21.333zM60.672 917.333h433.259c9.963 0 18.069-9.579 18.069-21.333v-234.667h-469.333v234.667c0 11.755 8.085 21.333 18.005 21.333zM234.667 490.667h-128c-11.776 0-21.333-9.557-21.333-21.333s9.557-21.333 21.333-21.333h128c11.776 0 21.333 9.557 21.333 21.333s-9.557 21.333-21.333 21.333zM934.4 576h-546.133c-49.408 0-89.6-44.032-89.6-98.133v-358.4c0-54.123 40.192-98.133 89.6-98.133h251.733v-42.667h-149.333c-11.776 0-21.333-9.557-21.333-21.333s9.557-21.333 21.333-21.333h341.333c11.776 0 21.333 9.557 21.333 21.333s-9.557 21.333-21.333 21.333h-149.333v42.667h251.733c49.408 0 89.6 44.011 89.6 98.133v358.4c0 54.101-40.192 98.133-89.6 98.133zM341.333 477.867c0 30.592 21.056 55.467 46.933 55.467h546.133c25.877 0 46.933-24.875 46.933-55.467v-285.867h-640v285.867zM934.4 64h-546.133c-25.877 0-46.933 24.875-46.933 55.467v29.867h640v-29.867c0-30.592-21.056-55.467-46.933-55.467zM682.667 106.667c0-11.782-9.551-21.333-21.333-21.333s-21.333 9.551-21.333 21.333c0 11.782 9.551 21.333 21.333 21.333s21.333-9.551 21.333-21.333z"/>
<glyph unicode="" glyph-name="palette" d="M874.027 767.381c-96.704 96.704-225.28 149.952-362.027 149.952s-265.323-53.248-362.048-149.952c-199.637-199.659-199.616-524.48 0-724.096 20.16-20.139 46.955-31.232 75.435-31.232 28.501 0 55.296 11.093 75.435 31.253 41.557 41.579 41.557 109.248 0 150.848-4.032 4.011-6.251 9.365-6.251 15.061 0 5.717 2.24 11.072 6.272 15.104 8.043 8.085 22.101 8.064 30.144 0l181.035-181.035c48.341-48.341 112.619-74.987 181.013-74.987 68.373 0 132.651 26.645 180.992 74.987 199.637 199.616 199.637 524.459 0 724.096zM843.883 73.472c-40.299-40.277-93.867-62.485-150.848-62.485s-110.549 22.187-150.848 62.485l-181.013 181.035c-12.096 12.075-28.16 18.731-45.269 18.731s-33.173-6.656-45.291-18.731c-12.096-12.096-18.752-28.181-18.752-45.269 0-17.109 6.677-33.173 18.752-45.248 24.939-24.981 24.939-65.579 0.021-90.539-24.171-24.171-66.347-24.171-90.517 0-182.997 182.997-182.997 480.747 0 663.765 88.661 88.64 206.528 137.451 331.883 137.451s243.221-48.811 331.883-137.429c182.997-183.019 182.997-480.768 0-663.765zM693.013 531.2c22.805 0 44.245 8.875 60.352 25.003 16.107 16.107 24.981 37.525 24.981 60.331s-8.875 44.224-24.981 60.331c-32.235 32.235-88.469 32.235-120.683 0-16.107-16.128-25.003-37.547-25.003-60.352s8.896-44.224 25.003-60.331 37.525-24.981 60.331-24.981zM662.848 646.677c8.064 8.064 18.773 12.501 30.165 12.501 11.413 0 22.101-4.437 30.165-12.501 8.064-8.043 12.501-18.773 12.501-30.165s-4.437-22.123-12.501-30.165c-16.107-16.107-44.224-16.128-60.331 0-8.064 8.064-12.501 18.773-12.501 30.165s4.437 22.101 12.501 30.165zM855.915 450.581c-24.192 24.192-66.304 24.192-90.496 0-24.96-24.96-24.96-65.557 0-90.517 12.096-12.075 28.16-18.731 45.248-18.731s33.152 6.656 45.248 18.731c12.096 12.096 18.752 28.181 18.752 45.269s-6.656 33.173-18.752 45.248zM825.749 390.272c-8.064-8.064-22.101-8.064-30.165-0.021-8.32 8.32-8.32 21.845 0 30.165 4.032 4.032 9.387 6.251 15.083 6.251s11.051-2.219 15.083-6.272c4.032-4.011 6.251-9.365 6.251-15.061s-2.219-11.051-6.251-15.061zM692.992 300.8c-28.501 0-55.275-11.093-75.392-31.232-20.139-20.139-31.232-46.933-31.232-75.435s11.093-55.275 31.232-75.392c20.139-20.139 46.891-31.253 75.413-31.253 28.501 0 55.296 11.093 75.413 31.232 20.139 20.139 31.232 46.912 31.232 75.413s-11.093 55.296-31.232 75.435c-20.16 20.139-46.933 31.232-75.435 31.232zM738.261 148.907c-24.149-24.171-66.325-24.192-90.496 0-12.075 12.075-18.731 28.139-18.731 45.227 0 17.109 6.656 33.195 18.752 45.291 12.075 12.053 28.117 18.709 45.227 18.709s33.173-6.656 45.248-18.709c12.096-12.075 18.752-28.16 18.752-45.269s-6.656-33.173-18.752-45.248zM376.235 722.133c-16.107-16.107-25.003-37.525-25.003-60.331s8.875-44.245 25.003-60.352c16.107-16.107 37.525-24.981 60.331-24.981 22.784 0 44.224 8.875 60.309 24.981 16.128 16.128 25.003 37.568 25.003 60.373 0 22.784-8.896 44.203-25.003 60.309-32.213 32.235-88.405 32.235-120.64 0zM466.731 631.616c-16.107-16.107-44.224-16.107-60.331 0-8.064 8.064-12.501 18.795-12.501 30.187s4.437 22.101 12.501 30.144c8.064 8.064 18.773 12.501 30.165 12.501s22.101-4.416 30.165-12.501c8.064-8.043 12.501-18.752 12.501-30.144 0.021-11.413-4.437-22.123-12.501-30.187z"/>
<glyph unicode="" glyph-name="pen" d="M1024 818.005c0 5.653-2.261 11.072-6.251 15.083l-120.704 120.661c-8.341 8.341-21.824 8.341-30.165 0l-16.619-16.619c-17.301 11.477-37.568 17.685-58.816 17.685-28.501 0-55.296-11.115-75.413-31.253l-241.344-241.344c-8.341-8.341-8.341-21.824 0-30.165 4.16-4.16 9.621-6.251 15.083-6.251s10.923 2.091 15.083 6.251l241.344 241.344c18.923 18.944 48.747 22.827 72.448 12.117l-193.109-193.131c-0.043-0.043-0.043-0.085-0.085-0.128l-422.272-422.251c-8.341-8.341-8.341-21.824 0-30.165l7.381-7.381c-6.336 0.96-12.779 1.6-19.307 1.6-33.877 0-65.707-13.205-89.643-37.141-44.587-44.565-76.928-215.552-80.469-234.901l-5.568-30.379 30.357 5.547c19.349 3.541 190.379 35.819 234.965 80.448 23.936 23.936 37.12 55.787 37.12 89.643 0 6.549-0.64 12.971-1.6 19.307l7.424-7.424c3.989-4.011 9.408-6.251 15.083-6.251 5.653 0 11.072 2.261 15.083 6.251l422.379 422.357c0.021 0.021 0.021 0.043 0.043 0.064l241.323 241.344c3.989 3.989 6.251 9.429 6.251 15.083zM250.731 67.819c-18.667-18.688-82.432-38.848-142.293-53.525l69.483 69.44c8.341 8.32 8.341 21.824 0 30.165s-21.824 8.341-30.165 0l-69.525-69.483c14.699 59.883 34.88 123.669 53.547 142.336 15.893 15.893 36.992 24.64 59.477 24.64 22.464 0 43.584-8.747 59.477-24.619 15.872-15.893 24.619-37.013 24.619-59.477 0.021-22.485-8.725-43.584-24.619-59.477zM338.901 184.427l-90.496 90.517 392.192 392.192 90.496-90.517-392.192-392.192zM761.28 606.784l-90.496 90.517 196.032 196.053c0.021 0.021 0.043 0.021 0.064 0.043s0.021 0.043 0.043 0.064l15.019 15.019 90.539-90.496-211.2-211.2z"/>
<glyph unicode="" glyph-name="pen-2" d="M941.504 756.821l-120.683 120.683c-8.341 8.341-21.824 8.341-30.165 0l-16.597-16.619c-17.301 11.499-37.568 17.707-58.816 17.707-28.501 0-55.296-11.093-75.435-31.253l-241.344-241.344c-8.341-8.341-8.341-21.824 0-30.165 4.16-4.16 9.621-6.251 15.083-6.251s10.901 2.069 15.083 6.251l241.344 241.344c18.944 18.923 48.747 22.827 72.469 12.117l-193.067-193.088c-0.021-0.021-0.043-0.021-0.064-0.043l-422.4-422.379c-4.011-3.989-6.251-9.429-6.251-15.083s2.24-11.072 6.251-15.083l15.083-15.083-75.392-75.435c-8.341-8.341-8.341-21.824 0-30.165l15.061-15.083-75.413-75.435c-8.341-8.341-8.341-21.824 0-30.165 4.16-4.16 9.621-6.251 15.083-6.251s10.923 2.091 15.083 6.251l75.413 75.435 15.083-15.104c3.989-3.989 9.408-6.251 15.083-6.251s11.093 2.24 15.083 6.251l75.435 75.435 15.083-15.083c4.16-4.16 9.621-6.251 15.083-6.251s10.923 2.069 15.083 6.251l422.315 422.315c0.021 0.021 0.043 0.021 0.064 0.043l241.365 241.365c3.989 3.989 6.251 9.429 6.251 15.083s-2.24 11.072-6.251 15.083zM141.995 47.829l-30.144 30.187 60.309 60.331 30.187-30.187-60.352-60.331zM262.677 108.16l-15.040 15.040c-0.021 0.021-0.021 0.043-0.043 0.064l-60.352 60.352c-0.021 0.021-0.043 0.021-0.064 0.043l-15.019 15.019 392.235 392.192 90.496-90.517-392.213-392.192zM685.077 530.56l-90.496 90.517 211.179 211.2 90.517-90.517-211.2-211.2z"/>
<glyph unicode="" glyph-name="pen-3" d="M828.8 503.765l-164.395 265.344 80.021 160.021c3.307 6.613 2.944 14.464-0.939 20.757-3.904 6.272-10.752 10.112-18.155 10.112h-490.667c-7.765 0-14.891-4.203-18.645-10.987-3.776-6.784-3.541-15.083 0.555-21.653l99.627-159.403-163.669-264.192c-3.819-6.187-4.245-13.888-1.088-20.459l256-533.333c3.541-7.381 11.008-12.096 19.221-12.096h128c8.213 0 15.68 4.715 19.221 12.096l256 533.333c3.157 6.549 2.752 14.272-1.088 20.459zM690.816 917.333l-64-128h-273.664l-80 128h417.664zM490.667 449.877c-35.285 0-64 28.715-64 64s28.715 64 64 64 64-28.715 64-64-28.715-64-64-64zM541.227-19.456h-29.227v428.821c48.619 9.92 85.333 52.992 85.333 104.512 0 58.816-47.851 106.667-106.667 106.667s-106.667-47.851-106.667-106.667c0-51.52 36.715-94.592 85.333-104.512v-428.821h-29.248l-245.12 510.677 158.251 255.445h274.901l158.251-255.424-245.141-510.699z"/>
<glyph unicode="" glyph-name="pen-4" d="M576 690.944v55.723h21.333c9.792 0 18.325 6.656 20.693 16.149l42.667 170.667c1.6 6.379 0.149 13.12-3.883 18.304s-10.24 8.213-16.811 8.213h-298.667c-6.571 0-12.779-3.029-16.811-8.213s-5.483-11.925-3.883-18.304l42.667-170.667c2.368-9.493 10.901-16.149 20.693-16.149h21.333v-55.723c-99.264-35.264-170.667-129.856-170.667-241.067 0-133.909 207.467-486.571 216.299-501.525 3.84-6.485 10.816-10.475 18.368-10.475h42.667c7.019 0 13.568 3.435 17.557 9.216 52.331 75.776 217.109 383.275 217.109 502.784 0 111.211-71.403 205.803-170.667 241.067zM368.661 917.333h244.011l-32-128h-17.408c-2.645 1.173-5.525 1.877-8.597 1.877s-5.952-0.704-8.597-1.877h-110.805c-2.645 1.173-5.525 1.877-8.597 1.877s-5.952-0.704-8.597-1.877h-17.408l-32 128zM448 746.667h85.333v-44.651c-13.909 2.347-28.096 3.861-42.667 3.861s-28.757-1.515-42.667-3.861v44.651zM490.667 364.544c-23.531 0-42.667 19.136-42.667 42.667s19.136 42.667 42.667 42.667 42.667-19.136 42.667-42.667c0-23.531-19.136-42.667-42.667-42.667zM512-1.365v326.272c36.715 9.536 64 42.645 64 82.304 0 47.061-38.272 85.333-85.333 85.333s-85.333-38.272-85.333-85.333c0-39.659 27.285-72.768 64-82.304v-322.944c-51.221 90.219-192 347.328-191.979 447.915 0 117.632 95.701 213.333 213.333 213.333s213.333-95.701 213.333-213.333c0-94.485-128.832-347.883-192.021-451.243z"/>
<glyph unicode="" glyph-name="photo" d="M0 960v-1024h1024v1024h-1024zM981.333 917.333v-682.667h-29.504l-145.003 289.984c-15.829 31.68-47.659 51.349-83.072 51.349-32.896 0-63.659-17.643-80.235-46.080l-112.533-192.939c-33.152 40.021-104 111.019-189.653 111.019-105.195 0-183.936-162.176-206.144-213.333h-92.523v682.667h938.667zM904.128 234.667h-722.027c31.019 65.365 94.571 170.667 159.232 170.667 93.824 0 173.461-117.333 174.272-118.528 4.096-6.101 11.349-9.771 18.389-9.451 7.339 0.235 14.059 4.203 17.771 10.56l128.619 220.501c8.981 15.36 25.6 24.917 43.392 24.917 19.136 0 36.352-10.645 44.907-27.755l135.445-270.912zM42.667-21.333v213.333h938.667v-213.333h-938.667zM277.333 576h128c70.592 0 128 57.408 128 128s-57.408 128-128 128c-55.339 0-102.933-34.923-120.491-85.675-49.685 4.608-92.843-35.435-92.843-84.992 0-47.061 38.272-85.333 85.333-85.333zM277.333 704c5.013 0 10.176-1.003 15.296-3.008l24.619-9.579 4.181 26.091c6.656 41.621 41.941 71.829 83.904 71.829 47.061 0 85.333-38.272 85.333-85.333s-38.272-85.333-85.333-85.333h-128c-23.531 0-42.667 19.136-42.667 42.667s19.136 42.667 42.667 42.667z"/>
<glyph unicode="" glyph-name="photo-frame" d="M775.808 746.667l-221.845 186.987c-8.021 6.763-19.797 6.677-27.776-0.235l-214.187-186.752h-312v-810.667h1024v810.667h-248.192zM540.437 889.237l169.131-142.571h-332.629l163.499 142.571zM981.333-21.333h-938.667v725.333h938.667v-725.333zM187.072 19.925c0.192 0.213 0.811 0.981 1.152 1.408h391.552c0.363-0.427 0.981-1.195 1.152-1.408l1.685 1.408h356.053v640h-853.333v-640h100.053l1.685-1.408zM220.885 64c19.115 26.283 44.075 62.955 69.611 106.667h187.008c25.536-43.712 50.496-80.384 69.611-106.667h-326.229zM314.304 213.333c27.072 51.157 52.608 108.971 69.696 169.259 17.088-60.288 42.624-118.101 69.696-169.259h-139.392zM768 64h-42.667v106.667h42.667v-106.667zM810.667 64v234.667h85.333v-234.667h-85.333zM128 618.667h768v-277.333h-106.667c-11.797 0-21.333-9.557-21.333-21.333v-106.667h-64c-11.797 0-21.333-9.557-21.333-21.333v-128h-82.155c-45.76 59.691-195.179 269.269-195.179 460.245 0 11.776-9.536 21.333-21.333 21.333s-21.333-9.557-21.333-21.333c0-190.741-149.44-400.512-195.179-460.245h-39.488v554.667z"/>
<glyph unicode="" glyph-name="photos" d="M981.333 725.333v-746.667h-746.667v-42.667h789.333v789.333zM938.667 853.333h-42.667v-789.333h-789.333v-42.667h832zM853.333 960h-853.333v-853.333h853.333v853.333zM810.667 917.333v-597.333h-70.592l-122.816 327.488c-2.816 7.509-9.579 12.8-17.536 13.717-8 0.96-15.765-2.709-20.181-9.365l-154.816-232.235-88.363 106.048c-4.416 5.312-11.008 8.149-18.027 7.616-6.869-0.533-13.077-4.395-16.64-10.304l-121.771-202.965h-137.259v597.333h768zM694.485 320h-464.811l93.12 155.264 87.445-104.917c4.288-5.163 10.709-7.957 17.515-7.637 6.72 0.363 12.885 3.861 16.619 9.472l147.563 221.333 102.549-273.515zM42.667 149.333v128h768v-128h-768zM256 661.333c47.061 0 85.333 38.272 85.333 85.333s-38.272 85.333-85.333 85.333-85.333-38.272-85.333-85.333 38.272-85.333 85.333-85.333zM256 789.333c23.531 0 42.667-19.136 42.667-42.667s-19.136-42.667-42.667-42.667-42.667 19.136-42.667 42.667 19.136 42.667 42.667 42.667z"/>
<glyph unicode="" glyph-name="polaroid" d="M938.667 435.499v375.168c0 82.325-66.987 149.333-149.333 149.333h-554.667c-82.347 0-149.333-67.008-149.333-149.333v-375.168l-85.333-85.333v-158.165c0-47.061 38.272-85.333 85.333-85.333h94.315c-18.005-43.989-45.483-91.669-88.064-134.251l-36.416-36.416h921.088l-45.269 37.739c-44.693 37.227-72.747 86.229-90.411 132.928h98.091c47.061 0 85.333 38.272 85.333 85.333v158.165l-85.333 85.333zM576 917.333h213.333c58.816 0 106.667-47.851 106.667-106.667v-362.667h-320v121.28c50.368 24.021 85.333 75.307 85.333 134.72s-34.965 110.677-85.333 134.72v78.613zM512 597.333c-58.816 0-106.667 47.851-106.667 106.667s47.851 106.667 106.667 106.667c58.816 0 106.667-47.851 106.667-106.667s-47.851-106.667-106.667-106.667zM533.333 556.373v-108.373h-42.667v108.373c6.976-1.003 14.080-1.707 21.333-1.707s14.357 0.704 21.333 1.707zM490.667 917.333h42.667v-65.707c-6.976 1.003-14.080 1.707-21.333 1.707s-14.357-0.704-21.333-1.707v65.707zM128 810.667c0 58.816 47.851 106.667 106.667 106.667h213.333v-78.613c-50.368-24.021-85.333-75.307-85.333-134.72s34.965-110.699 85.333-134.72v-121.28h-320v362.667zM115.499 405.333h793.003l42.667-42.667h-878.336l42.667 42.667zM865.6-21.333h-711.317c11.2 14.059 21.056 28.352 29.931 42.667h650.56c9.045-14.635 19.157-28.992 30.827-42.667zM207.637 64c34.517 71.509 44.48 137.835 47.253 170.667h514.048c2.453-33.643 11.328-101.845 42.944-170.667h-604.245zM981.333 192c0-23.531-19.136-42.667-42.667-42.667h-111.744c-9.429 35.264-13.376 65.984-15.019 85.333h126.763v42.667h-853.333v-42.667h126.592c-1.877-19.072-6.464-49.472-17.173-85.333h-109.419c-23.531 0-42.667 19.136-42.667 42.667v128h938.667v-128zM245.333 595.989c-17.643 0-32-14.357-32-32s14.357-32 32-32c17.643 0 32 14.357 32 32 0 17.664-14.357 32-32 32zM245.333 553.323c-5.888 0-10.667 4.8-10.667 10.667s4.779 10.667 10.667 10.667c5.888 0 10.667-4.8 10.667-10.667s-4.779-10.667-10.667-10.667zM853.333 853.333h-149.333v-128h149.333v128zM810.667 768h-64v42.667h64v-42.667z"/>
<glyph unicode="" glyph-name="receipt" d="M512 704h85.333c11.776 0 21.333 9.557 21.333 21.333s-9.557 21.333-21.333 21.333h-85.333c-11.776 0-21.333-9.557-21.333-21.333s9.557-21.333 21.333-21.333zM789.333 661.333h-234.667c-11.776 0-21.333-9.557-21.333-21.333s9.557-21.333 21.333-21.333h234.667c11.776 0 21.333 9.557 21.333 21.333s-9.557 21.333-21.333 21.333zM490.667 533.333h277.333c11.776 0 21.333 9.557 21.333 21.333s-9.557 21.333-21.333 21.333h-277.333c-11.776 0-21.333-9.557-21.333-21.333s9.557-21.333 21.333-21.333zM789.333 490.667h-298.667c-11.776 0-21.333-9.557-21.333-21.333s9.557-21.333 21.333-21.333h298.667c11.776 0 21.333 9.557 21.333 21.333s-9.557 21.333-21.333 21.333zM746.667 362.667c11.776 0 21.333 9.557 21.333 21.333s-9.557 21.333-21.333 21.333h-256c-11.776 0-21.333-9.557-21.333-21.333s9.557-21.333 21.333-21.333h256zM768 320h-298.667c-11.776 0-21.333-9.557-21.333-21.333s9.557-21.333 21.333-21.333h298.667c11.776 0 21.333 9.557 21.333 21.333s-9.557 21.333-21.333 21.333zM1024 768c0 44.885-6.251 149.333-64 149.333h-532.245c-50.347 0-64.597-55.595-65.088-85.611 0.043-3.691 4.011-364.16-38.955-597.056h-195.712c-18.56 0-33.771-5.845-45.248-17.387-24.811-24.981-24.512-69.205-24.171-116.011 0.299-41.877 0.64-89.365-19.648-109.781-8.555-8.64-21.291-12.821-38.933-12.821v-42.667h532.288c29.184 0 52.48 8.555 69.184 25.387 15.573 15.68 23.509 36.8 27.691 59.947h159.125c18.453 0 35.371 7.765 50.283 23.104 92.907 95.467 101.355 514.816 100.331 702.229h85.099v21.333zM571.221-8.512c-8.555-8.64-21.291-12.821-38.933-12.821h-449.92c19.52 33.515 19.179 80.576 18.88 122.88-0.235 34.347-0.512 73.259 11.797 85.653 2.048 2.069 5.824 4.8 14.955 4.8h471.701c-9.152-24.811-9.067-57.045-8.832-90.731 0.299-41.877 0.64-89.365-19.648-109.781zM633.536 101.547c-0.235 34.347-0.512 73.259 11.797 85.653 2.048 2.069 5.824 4.8 14.955 4.8 6.763 0 15.68-0.917 19.947-5.184 7.232-7.317 7.019-27.925 6.805-47.872-0.256-24.811-0.341-52.139 11.819-74.944h-65.557c0.384 12.608 0.32 25.28 0.235 37.547zM808 74.197c-9.92-10.197-17.301-10.197-19.712-10.197-22.571 0-38.315 4.352-46.805 12.907-12.331 12.459-12.075 37.44-11.819 61.589 0.32 28.672 0.619 58.347-19.136 78.315-11.733 11.84-28.629 17.856-50.24 17.856v0h-293.248c42.261 236.565 38.485 582.443 38.293 596.907 0 0.427 1.941 43.093 22.421 43.093h475.84c-5.995-15.019-8.448-31.147-8.64-43.243 4.885-180.757-1.237-669.163-86.955-757.227zM938.475 789.333c-0.299 20.011-0.64 34.603-0.853 42.24 0.021 0.427 1.92 42.517 21.632 43.093h0.405c8.491-4.224 18.453-41.024 21.056-85.333h-42.24z"/>
<glyph unicode="" glyph-name="remote" d="M934.699-29.504l-102.699 143.765v187.648c0 68.224-48.875 107.285-110.741 156.736-12.224 9.771-25.237 20.267-38.592 31.445v86.656c0 47.061-38.272 85.333-85.333 85.333h-298.667c-47.061 0-85.333-38.272-85.333-85.333v-469.333c0-47.061 38.272-85.333 85.333-85.333h234.667c11.776 0 21.333 9.557 21.333 21.333s-9.557 21.333-21.333 21.333h-234.667c-23.531 0-42.667 19.136-42.667 42.667v469.333c0 23.531 19.136 42.667 42.667 42.667h298.667c23.531 0 42.667-19.136 42.667-42.667v-213.248c0-11.776 9.557-21.333 21.333-21.333s21.333 9.557 21.333 21.333v71.403c3.989-3.2 8.085-6.528 11.947-9.6 57.045-45.589 94.72-75.691 94.72-123.392v-194.496c0-4.437 1.387-8.789 3.968-12.395l106.667-149.333c4.16-5.824 10.731-8.939 17.387-8.939 4.288 0 8.619 1.301 12.373 3.989 9.6 6.848 11.819 20.181 4.971 29.76zM623.083 346.517c-25.152 25.152-69.013 25.152-94.165 0-12.565-12.565-19.499-29.291-19.499-47.083 0-17.088 6.379-33.195 18.027-45.589l91.221-131.755v-58.987c0-31.275 9.6-61.291 27.776-86.805l22.464-31.381c4.16-5.824 10.709-8.917 17.365-8.917 4.288 0 8.64 1.28 12.395 3.989 9.579 6.848 11.797 20.181 4.928 29.76l-22.421 31.339c-12.992 18.219-19.84 39.659-19.84 62.016v72.32l-99.797 144.171-2.453 2.944c-4.523 4.523-7.019 10.517-7.019 16.917 0 6.379 2.496 12.395 7.019 16.896 9.024 9.045 24.789 9.045 33.835 0l117.333-117.333c8.341-8.341 21.824-8.341 30.165 0s8.341 21.824 0 30.165l-117.333 117.333zM384 512.747c0-11.782-9.551-21.333-21.333-21.333s-21.333 9.551-21.333 21.333c0 11.782 9.551 21.333 21.333 21.333s21.333-9.551 21.333-21.333zM469.333 512.747c0-11.782-9.551-21.333-21.333-21.333s-21.333 9.551-21.333 21.333c0 11.782 9.551 21.333 21.333 21.333s21.333-9.551 21.333-21.333zM554.667 512.747c0-11.782-9.551-21.333-21.333-21.333s-21.333 9.551-21.333 21.333c0 11.782 9.551 21.333 21.333 21.333s21.333-9.551 21.333-21.333zM384 427.413c0-11.782-9.551-21.333-21.333-21.333s-21.333 9.551-21.333 21.333c0 11.782 9.551 21.333 21.333 21.333s21.333-9.551 21.333-21.333zM384 342.080c0-11.782-9.551-21.333-21.333-21.333s-21.333 9.551-21.333 21.333c0 11.782 9.551 21.333 21.333 21.333s21.333-9.551 21.333-21.333zM384 256.747c0-11.782-9.551-21.333-21.333-21.333s-21.333 9.551-21.333 21.333c0 11.782 9.551 21.333 21.333 21.333s21.333-9.551 21.333-21.333zM384 171.413c0-11.782-9.551-21.333-21.333-21.333s-21.333 9.551-21.333 21.333c0 11.782 9.551 21.333 21.333 21.333s21.333-9.551 21.333-21.333zM469.333 427.413c0-11.782-9.551-21.333-21.333-21.333s-21.333 9.551-21.333 21.333c0 11.782 9.551 21.333 21.333 21.333s21.333-9.551 21.333-21.333zM469.333 342.080c0-11.782-9.551-21.333-21.333-21.333s-21.333 9.551-21.333 21.333c0 11.782 9.551 21.333 21.333 21.333s21.333-9.551 21.333-21.333zM469.333 256.747c0-11.782-9.551-21.333-21.333-21.333s-21.333 9.551-21.333 21.333c0 11.782 9.551 21.333 21.333 21.333s21.333-9.551 21.333-21.333zM469.333 171.413c0-11.782-9.551-21.333-21.333-21.333s-21.333 9.551-21.333 21.333c0 11.782 9.551 21.333 21.333 21.333s21.333-9.551 21.333-21.333zM554.667 427.413c0-11.782-9.551-21.333-21.333-21.333s-21.333 9.551-21.333 21.333c0 11.782 9.551 21.333 21.333 21.333s21.333-9.551 21.333-21.333zM261.333 860.757c56.192 37.504 121.664 57.344 189.333 57.344 67.648 0 133.099-19.819 189.291-57.344 3.627-2.432 7.744-3.584 11.819-3.584 6.869 0 13.632 3.307 17.728 9.472 6.549 9.792 3.925 23.040-5.888 29.589-63.232 42.219-136.875 64.533-212.971 64.533-76.139 0-149.803-22.315-213.013-64.533-9.792-6.549-12.437-19.797-5.888-29.589s19.819-12.395 29.589-5.888zM604.437 786.176c6.891 0 13.653 3.328 17.749 9.493 6.549 9.792 3.904 23.040-5.888 29.589-49.152 32.832-106.432 50.197-165.653 50.197-59.2 0-116.48-17.365-165.675-50.197-9.792-6.549-12.437-19.797-5.888-29.589 6.549-9.771 19.797-12.437 29.589-5.888 42.155 28.139 91.264 43.008 141.995 43.008 50.752 0 99.819-14.869 141.931-43.008 3.648-2.432 7.765-3.605 11.84-3.605zM332.309 754.24c-9.792-6.549-12.437-19.797-5.888-29.589 6.528-9.813 19.776-12.395 29.589-5.888 56.128 37.483 133.099 37.525 189.312 0 3.648-2.432 7.744-3.584 11.819-3.584 6.891 0 13.653 3.349 17.771 9.472 6.528 9.792 3.883 23.040-5.909 29.589-70.315 46.912-166.507 46.891-236.693 0z"/>
<glyph unicode="" glyph-name="roller" d="M832 832h-21.333v106.667c0 11.776-9.536 21.333-21.333 21.333h-640c-11.797 0-21.333-9.557-21.333-21.333v-106.667h-21.333c-35.285 0-64-28.715-64-64v-170.667c0-35.285 28.715-64 64-64h341.333c11.776 0 21.333-9.579 21.333-21.333v-106.667c0-0.235 0.128-0.427 0.128-0.64-39.787-8.64-85.461-39.531-85.461-82.816v-320c0-40.213 60.501-65.877 92.117-65.877h42.667c35.584 0 78.549 29.376 78.549 65.877v320c0 43.285-45.675 74.176-85.461 82.816 0 0.213 0.128 0.405 0.128 0.64v106.667c0 35.285-28.715 64-64 64h-341.333c-11.776 0-21.333 9.579-21.333 21.333v170.667c0 11.755 9.557 21.333 21.333 21.333h21.333v-106.667c0-11.776 9.536-21.333 21.333-21.333h640c11.797 0 21.333 9.557 21.333 21.333v106.667h21.333c11.797 0 21.333 9.557 21.333 21.333s-9.536 21.333-21.333 21.333zM554.667 321.877v-320c0-8.405-20.736-23.211-35.883-23.211h-42.667c-16.939 0-46.976 15.659-49.451 23.211v320c0 20.608 37.568 42.667 64 42.667s64-22.059 64-42.667zM768 704h-597.333v213.333h597.333v-213.333z"/>
<glyph unicode="" glyph-name="scale" d="M512 960c-282.304 0-512-229.696-512-512s229.696-512 512-512c282.304 0 512 229.696 512 512s-229.696 512-512 512zM512-21.333c-258.795 0-469.333 210.539-469.333 469.333s210.539 469.333 469.333 469.333 469.333-210.539 469.333-469.333-210.539-469.333-469.333-469.333zM783.488 719.509c-8.341 8.341-21.824 8.341-30.165 0l-198.251-198.272c-12.693 7.509-27.285 12.096-43.072 12.096-47.061 0-85.333-38.272-85.333-85.333s38.272-85.333 85.333-85.333 85.333 38.272 85.333 85.333c0 15.787-4.608 30.4-12.096 43.093l198.251 198.251c8.341 8.341 8.341 21.824 0 30.165zM512 405.333c-23.531 0-42.667 19.136-42.667 42.667s19.136 42.667 42.667 42.667c23.509 0 42.667-19.136 42.667-42.667s-19.157-42.667-42.667-42.667zM210.944 440.107c0 11.776-9.536 21.333-21.333 21.333h-85.333c-11.797 0-21.333-9.557-21.333-21.333s9.536-21.333 21.333-21.333h85.333c11.776 0 21.333 9.557 21.333 21.333zM208.171 345.237l-78.869-32.64c-10.88-4.501-16.043-16.981-11.541-27.861 3.392-8.213 11.349-13.184 19.712-13.184 2.731 0 5.504 0.533 8.171 1.621l78.869 32.64c10.88 4.501 16.043 16.981 11.541 27.861-4.501 10.901-17.024 16.064-27.883 11.563zM894.613 312.597l-78.805 32.661c-10.837 4.501-23.381-0.64-27.883-11.541-4.523-10.901 0.64-23.36 11.541-27.883l78.805-32.661c2.667-1.109 5.44-1.643 8.171-1.643 8.341 0 16.299 4.949 19.712 13.184 4.523 10.901-0.64 23.381-11.541 27.883zM917.291 469.291l-85.269 0.043c-0.021 0-0.021 0-0.021 0-11.776 0-21.333-9.557-21.333-21.333s9.536-21.333 21.333-21.333l85.291-0.043c11.776 0 21.333 9.536 21.333 21.333 0 11.776-9.536 21.333-21.333 21.333zM807.616 549.12c2.731 0 5.504 0.533 8.171 1.621l78.827 32.619c10.88 4.501 16.043 16.981 11.541 27.861-4.501 10.901-17.003 16.043-27.883 11.563l-78.827-32.619c-10.88-4.501-16.043-16.981-11.541-27.861 3.392-8.213 11.328-13.184 19.712-13.184zM626.283 723.947c2.667-1.109 5.44-1.643 8.171-1.643 8.363 0 16.32 4.949 19.712 13.184l32.661 78.805c4.523 10.901-0.64 23.36-11.541 27.883-10.837 4.48-23.381-0.64-27.883-11.541l-32.661-78.805c-4.523-10.901 0.64-23.381 11.541-27.883zM509.611 738.773c11.776 0 21.333 9.557 21.333 21.333v85.333c0 11.776-9.536 21.333-21.333 21.333s-21.333-9.557-21.333-21.333v-85.333c0-11.776 9.536-21.333 21.333-21.333zM369.835 735.488c3.392-8.213 11.328-13.184 19.712-13.184 2.731 0 5.504 0.533 8.171 1.643 10.88 4.501 16.043 16.981 11.541 27.861l-32.619 78.827c-4.501 10.88-17.045 16.043-27.883 11.541-10.88-4.501-16.043-16.981-11.541-27.861l32.619-78.827zM300.8 689.323l-60.288 60.352c-8.341 8.363-21.824 8.341-30.165 0.021s-8.341-21.824 0-30.165l60.288-60.352c4.16-4.16 9.621-6.251 15.083-6.251 5.44 0 10.901 2.091 15.083 6.229 8.341 8.32 8.341 21.824 0 30.165zM224.533 590.165l-78.805 32.683c-10.837 4.48-23.339-0.64-27.883-11.52-4.523-10.88 0.64-23.36 11.541-27.883l78.805-32.683c2.667-1.109 5.44-1.643 8.171-1.643 8.341 0 16.277 4.949 19.712 13.163 4.523 10.88-0.64 23.36-11.541 27.883zM704 277.333h-384c-11.797 0-21.333-9.557-21.333-21.333v-128c0-11.776 9.536-21.333 21.333-21.333h384c11.797 0 21.333 9.557 21.333 21.333v128c0 11.776-9.536 21.333-21.333 21.333zM682.667 149.333h-341.333v85.333h341.333v-85.333z"/>
</font>
</defs>
</svg>
